Поиск

2014 Simon Phillips - Protocol II {in-akustik HD} [24-44,1]

2014 Simon Phillips - Protocol II {in-akustik HD} [24-44,1]
Стили:
Издатель (лейбл):
Треклист:

01. Wildfire (Phillips) - 7:25
02. Soothsayer (Phillips-Weingart-Timmons-Tibbs) - 8:56
03. Gemini (Phillips) - 7:51
04. Moments of Fortune (Phillips-Timmons) - 8:13
05. Upside in Downside Up (Phillips-Weingart-Timmons-Tibbs) - 6:57
06. First Orbit (Phillips-Weingart) - 6:32
07. Octopia (Phillips-Weingart) - 3:56
08. Enigma (Phillips-Weingart-Timmons) - 9:16

Доп. инфо:

Формат записи/Источник записи: [TR24][OF]
Наличие водяных знаков: Нет
Год издания/переиздания диска: 2014
Жанр: Fusion, Jazz-Rock
Издатель (лейбл): in-akustik HD
Продолжительность: 00:59:06
Наличие сканов в содержимом раздачи: Буклет PDF

Контейнер: FLAC (*.flac)
Тип рипа: tracks
Разрядность: 24/44,1
Формат: WAV (flac.ape.wv)
Количество каналов: 2.0

Источник (релизер): highresaudio

Лог проверки качества
foobar2000 1.4.6 / Dynamic Range Meter 1.1.1
log date: 2019-09-30 12:11:32

--------------------------------------------------------------------------------
Analyzed: Simon Phillips / Protocol II
--------------------------------------------------------------------------------

DR         Peak         RMS     Duration Track
--------------------------------------------------------------------------------
DR12      -5.91 dB   -19.56 dB      7:25 01-Wildfire
DR13      -5.70 dB   -20.29 dB      8:56 02-Soothsayer
DR11      -5.90 dB   -19.14 dB      7:51 03-Gemini
DR12      -5.78 dB   -19.94 dB      8:13 04-Moments of Fortune
DR12      -5.74 dB   -19.29 dB      6:57 05-Upside in Downside Up
DR12      -6.28 dB   -20.84 dB      6:32 06-First Orbit
DR11      -5.78 dB   -20.25 dB      3:56 07-Octopia
DR11      -5.83 dB   -19.21 dB      9:16 08-Enigma
--------------------------------------------------------------------------------

Number of tracks:  8
Official DR value: DR12

Samplerate:        44100 Hz
Channels:          2
Bits per sample:   24
Bitrate:           1460 kbps
Codec:             FLAC
================================================================================
Приватный:
Нет (DHT включён)
Размер:
625.52 Мб (655,900,943 байт) » файлов: 13
Участники:
0 раздают, 27 качают (27 участников всего)
Внешние участники:
5 раздают, 2 качают (7 участников всего) [ Обновить ]
Скорость:
371.05 Кб/c 0/c
No seeders - write a personal message to user M0p94ok. Нет сидеров - пишите личное сообщение пользователю M0p94ok.
12:00
44
Нет комментариев. Ваш будет первым!