Поиск

2015 Kevin Eubanks & Stanley Jordan - Duets {Mack Avenue MAC 1092}

2015 Kevin Eubanks & Stanley Jordan - Duets {Mack Avenue MAC 1092}
Страна-производитель диска (релиза):
USA
Дата издания диска:
24 марта 2015
Издатель (лейбл):
Номер по каталогу:
MAC 1092
Носитель:
CD
Битрейт аудио:
lossless
Аудиокодек:
FLAC (*.flac)
Тип рипа:
tracks+.cue
Время звучания:
48:18
Наличие сканов:
  • web
Релизёр (источник):
Xanthus
Лог создания рипа
Exact Audio Copy V1.0 beta 6 from 9. April 2015
EAC extraction logfile from 4. August 2015, 20:27
Stanley Jordan, Kevin Eubanks / Duets
Used drive : hp DVDRAM GT50N Adapter: 1 ID: 0
Read mode : Secure
Utilize accurate stream : Yes
Defeat audio cache : Yes
Make use of C2 pointers : No
Read offset correction : 103
Overread into Lead-In and Lead-Out : No
Fill up missing offset samples with silence : Yes
Delete leading and trailing silent blocks : No
Null samples used in CRC calculations : Yes
Used interface : Native Win32 interface for Win NT & 2000
Gap handling : Appended to previous track
Used output format : User Defined Encoder
Selected bitrate : 1024 kBit/s
Quality : High
Add ID3 tag : No
Command line compressor : C:\Program Files (x86)\Exact Audio Copy\Flac\flac.exe
Additional command line options : -8 -V -T "ARTIST=%artist%" -T "TITLE=%title%" -T "ALBUM=%albumtitle%" -T "DATE=%year%" -T "TRACKNUMBER=%tracknr%" -T "GENRE=%genre%" -T "PERFORMER=%albuminterpret%" -T "COMPOSER=%composer%" %haslyrics%--tag-from-file=LYRICS="%lyricsfile%"%haslyrics% -T "ALBUMARTIST=%albumartist%" -T "DISCNUMBER=%cdnumber%" -T "TOTALDISCS=%totalcds%" -T "TOTALTRACKS=%numtracks%" -T "COMMENT=%comment%" %source% -o %dest%
TOC of the extracted CD Track | Start | Length | Start sector | End sector --------------------------------------------------------- 1 | 0:00.00 | 4:09.36 | 0 | 18710 2 | 4:09.36 | 5:13.41 | 18711 | 42226 3 | 9:23.02 | 5:43.47 | 42227 | 67998 4 | 15:06.49 | 5:15.03 | 67999 | 91626 5 | 20:21.52 | 6:15.39 | 91627 | 119790 6 | 26:37.16 | 4:33.18 | 119791 | 140283 7 | 31:10.34 | 4:17.48 | 140284 | 159606 8 | 35:28.07 | 3:14.13 | 159607 | 174169 9 | 38:42.20 | 5:05.63 | 174170 | 197107 10 | 43:48.08 | 4:29.52 | 197108 | 217334
Track 1 Filename C:\Users\OnE\Desktop\Kevin Eubanks & Stanley Jordan - Duets (2015) [FLAC]\01 Morning Star.wav Pre-gap length 0:00:02.00 Peak level 98.8 % Extraction speed 2.5 X Track quality 100.0 % Test CRC F0873F24 Copy CRC F0873F24 Accurately ripped (confidence 11) [83B6C6BF] (AR v2) Copy OK
Track 2 Filename C:\Users\OnE\Desktop\Kevin Eubanks & Stanley Jordan - Duets (2015) [FLAC]\02 Summertime.wav Pre-gap length 0:00:02.58 Peak level 98.8 % Extraction speed 1.4 X Track quality 100.0 % Test CRC D8315EF4 Copy CRC D8315EF4 Accurately ripped (confidence 11) [33AE830E] (AR v2) Copy OK
Track 3 Filename C:\Users\OnE\Desktop\Kevin Eubanks & Stanley Jordan - Duets (2015) [FLAC]\03 Nature Boy.wav Pre-gap length 0:00:01.73 Peak level 97.7 % Extraction speed 1.5 X Track quality 99.9 % Test CRC C3751783 Copy CRC C3751783 Accurately ripped (confidence 11) [A96C8048] (AR v2) Copy OK
Track 4 Filename C:\Users\OnE\Desktop\Kevin Eubanks & Stanley Jordan - Duets (2015) [FLAC]\04 Someone Like You.wav Pre-gap length 0:00:02.69 Peak level 97.6 % Extraction speed 1.6 X Track quality 99.9 % Test CRC 922C230B Copy CRC 922C230B Accurately ripped (confidence 11) [40120D96] (AR v2) Copy OK
Track 5 Filename C:\Users\OnE\Desktop\Kevin Eubanks & Stanley Jordan - Duets (2015) [FLAC]\05 A Child Is Born.wav Pre-gap length 0:00:02.14 Peak level 97.9 % Extraction speed 1.9 X Track quality 100.0 % Test CRC 30533F32 Copy CRC 30533F32 Accurately ripped (confidence 11) [4C8D3A62] (AR v2) Copy OK
Track 6 Filename C:\Users\OnE\Desktop\Kevin Eubanks & Stanley Jordan - Duets (2015) [FLAC]\06 Old School Jam.wav Pre-gap length 0:00:02.13 Peak level 98.2 % Extraction speed 1.8 X Track quality 99.9 % Test CRC C1A15ECD Copy CRC C1A15ECD Accurately ripped (confidence 11) [EB30F138] (AR v2) Copy OK
Track 7 Filename C:\Users\OnE\Desktop\Kevin Eubanks & Stanley Jordan - Duets (2015) [FLAC]\07 Vibes.wav Pre-gap length 0:00:02.29 Peak level 98.4 % Extraction speed 1.8 X Track quality 99.9 % Test CRC F8CBA5FA Copy CRC F8CBA5FA Accurately ripped (confidence 11) [15DD6E1D] (AR v2) Copy OK
Track 8 Filename C:\Users\OnE\Desktop\Kevin Eubanks & Stanley Jordan - Duets (2015) [FLAC]\08 Blue In Green.wav Pre-gap length 0:00:02.08 Peak level 96.9 % Extraction speed 1.8 X Track quality 99.9 % Test CRC 2FEB338A Copy CRC 2FEB338A Accurately ripped (confidence 11) [40A91774] (AR v2) Copy OK
Track 9 Filename C:\Users\OnE\Desktop\Kevin Eubanks & Stanley Jordan - Duets (2015) [FLAC]\09 Lights.wav Pre-gap length 0:00:02.84 Peak level 97.7 % Extraction speed 2.3 X Track quality 100.0 % Test CRC 42532345 Copy CRC 42532345 Accurately ripped (confidence 11) [C13C88A1] (AR v2) Copy OK
Track 10 Filename C:\Users\OnE\Desktop\Kevin Eubanks & Stanley Jordan - Duets (2015) [FLAC]\10 Goin' On Home.wav Pre-gap length 0:00:02.73 Peak level 80.8 % Extraction speed 2.3 X Track quality 100.0 % Test CRC 319E8724 Copy CRC 319E8724 Accurately ripped (confidence 11) [3300E1BB] (AR v2) Copy OK
All tracks accurately ripped
No errors occurred
End of status report
---- CUETools DB Plugin V2.1.6
[CTDB TOCID: rO6.wbxoHNoxYQh4GeY81FsKt6Q-] found
Submit result: rO6.wbxoHNoxYQh4GeY81FsKt6Q- has been confirmed
Track | CTDB Status 1 | (22/22) Accurately ripped 2 | (22/22) Accurately ripped 3 | (22/22) Accurately ripped 4 | (22/22) Accurately ripped 5 | (22/22) Accurately ripped 6 | (22/22) Accurately ripped 7 | (22/22) Accurately ripped 8 | (22/22) Accurately ripped 9 | (22/22) Accurately ripped 10 | (22/22) Accurately ripped
==== Log checksum B620F944F99A088AF5E3FFB559B1EC93211C602F3DF75B85D38C5F21EEF3EAC5 ====
Содержание индексной карты (.CUE)
REM GENRE Jazz
REM DATE 2015
REM DISCID 790B510A
REM COMMENT "ExactAudioCopy v1.0b6"
PERFORMER "Stanley Jordan, Kevin Eubanks"
TITLE "Duets"
FILE "01 - Morning Star.wav" WAVE TRACK 01 AUDIO TITLE "Morning Star" PERFORMER "Stanley Jordan, Kevin Eubanks" ISRC USMAR1409201 INDEX 01 00:00:00 TRACK 02 AUDIO TITLE "Summertime" PERFORMER "Stanley Jordan, Kevin Eubanks" ISRC USMAR1409202 INDEX 00 04:06:67
FILE "02 - Summertime.wav" WAVE INDEX 01 00:00:00 TRACK 03 AUDIO TITLE "Nature Boy" PERFORMER "Stanley Jordan, Kevin Eubanks" ISRC USMAR1409203 INDEX 00 05:11:61
FILE "03 - Nature Boy.wav" WAVE INDEX 01 00:00:00 TRACK 04 AUDIO TITLE "Someone Like You" PERFORMER "Stanley Jordan, Kevin Eubanks" ISRC USMAR1409204 INDEX 00 05:40:70
FILE "04 - Someone Like You.wav" WAVE INDEX 01 00:00:00 TRACK 05 AUDIO TITLE "A Child Is Born" PERFORMER "Stanley Jordan, Kevin Eubanks" ISRC USMAR1409205 INDEX 00 05:12:67
FILE "05 - A Child Is Born.wav" WAVE INDEX 01 00:00:00 TRACK 06 AUDIO TITLE "Old School Jam" PERFORMER "Stanley Jordan, Kevin Eubanks" ISRC USMAR1409206 INDEX 00 06:13:29
FILE "06 - Old School Jam.wav" WAVE INDEX 01 00:00:00 TRACK 07 AUDIO TITLE "Vibes" PERFORMER "Stanley Jordan, Kevin Eubanks" ISRC USMAR1409207 INDEX 00 04:30:71
FILE "07 - Vibes.wav" WAVE INDEX 01 00:00:00 TRACK 08 AUDIO TITLE "Blue In Green" PERFORMER "Stanley Jordan, Kevin Eubanks" ISRC USMAR1409208 INDEX 00 04:15:42
FILE "08 - Blue In Green.wav" WAVE INDEX 01 00:00:00 TRACK 09 AUDIO TITLE "Lights" PERFORMER "Stanley Jordan, Kevin Eubanks" ISRC USMAR1409209 INDEX 00 03:11:25
FILE "09 - Lights.wav" WAVE INDEX 01 00:00:00 TRACK 10 AUDIO TITLE "Goin' On Home" PERFORMER "Stanley Jordan, Kevin Eubanks" ISRC USMAR1409210 INDEX 00 05:03:08
FILE "10 - Goin' On Home.wav" WAVE INDEX 01 00:00:00
Лог проверки качества
[CUETools log; Date: 15.10.2015 19:08:03; Version: 2.0.9]
HDCD: peak extend: none, transient filter: none, gain: none
[CTDB TOCID: rO6.wbxoHNoxYQh4GeY81FsKt6Q-] found. [ CTDBID ] Status [133ef740] (25/25) Accurately ripped
[AccurateRip ID: 0012c03b-00958da0-790b510a] found.
Track [ CRC ] Status 01 [142e9c69] (12/12) No match but offset 02 [854ac3f2] (12/12) No match but offset 03 [54a14001] (12/12) No match but offset 04 [f4bc2fdd] (12/12) No match but offset 05 [98cc59fc] (12/12) No match but offset 06 [a90ca22f] (12/12) No match but offset 07 [f9b3e995] (12/12) No match but offset 08 [0e7179e4] (12/12) No match but offset 09 [d135521e] (12/12) No match but offset 10 [b1f9c371] (12/12) No match but offset
Track Peak [ CRC32 ] [W/O NULL] [ LOG ] -- 98,8 [F9001A6E] [987A8D31] 01 98,8 [F0873F24] [B8CC0CD6] CRC32 02 98,8 [D8315EF4] [47DB646B] CRC32 03 97,7 [C3751783] [FFF7CEA9] CRC32 04 97,6 [922C230B] [2FDBCB44] CRC32 05 97,9 [30533F32] [7EE60391] CRC32 06 98,2 [C1A15ECD] [27FEC312] CRC32 07 98,4 [F8CBA5FA] [270D67AE] CRC32 08 96,9 [2FEB338A] [9F1F46ED] CRC32 09 97,7 [42532345] [8AC72022] CRC32 10 80,8 [319E8724] [66717923] CRC32
Приватный:
Нет (DHT включён)
Размер:
276.92 Мб (290,368,944 байт) » файлов: 21
Участники:
0 раздают, 0 качают (0 участников всего)
Внешние участники:
5 раздают, 1 качают (6 участников всего) [ Обновить ]
16:59
86
RSS
Нет комментариев. Ваш будет первым!