Поиск

1998 Eva Cassidy - Songbird {Blix Street G 410045}

1998 Eva Cassidy - Songbird {Blix Street G 410045}
Стили:
Страна-производитель диска (релиза):
Japan
Дата издания диска:
19 мая 1998
Издатель (лейбл):
Номер по каталогу:
G 410045
Носитель:
CD
Битрейт аудио:
lossless
Аудиокодек:
FLAC (*.flac)
Тип рипа:
tracks+.cue
Время звучания:
43:08
Наличие сканов:
  • да
Релизёр (источник):
lugandy44444

Треклист:

01. Fields Of Gold
02. Wade In The Water
03. Autumn Leaves
04. Wayfaring Stranger
05. Songbird
06. Time Is A Healer
07. I Know You By Heart
08. People Get Ready
09. Oh, Had I A Golden Thread
10. Over The Rainbow

Состав:
  • Roy Battle    Engineer
  • Chris Biondo    Bass, Drum Programming, Engineer, Guitar, Producer
  • Dan Cassidy    Violin
  • Eva Cassidy    Arranger, Guitar, Keyboards, Producer, Vocals
  • Hilton Felton    Organ
  • John Gillespie    Organ
  • Keith Grimes    Guitar
  • Raice McLeod    Drums
  • Larry Melton    Bass (Upright)
  • Mike Stein    Violin
  • Chris Walker    Trumpet
  • Lenny Williams    Piano
  • Kent Wood    Engineer, Organ
Лог создания рипа
Exact Audio Copy V0.99 prebeta 5 from 4. May 2009
EAC extraction logfile from 21. April 2011, 18:01
Eva Cassidy / Songbird {BlixStreet}[xrcd]
Used drive : ASUS DRW-1608P3S Adapter: 0 ID: 1
Read mode : Secure
Utilize accurate stream : Yes
Defeat audio cache : Yes
Make use of C2 pointers : No
Read offset correction : 48
Overread into Lead-In and Lead-Out : No
Fill up missing offset samples with silence : Yes
Delete leading and trailing silent blocks : No
Null samples used in CRC calculations : Yes
Used interface : Native Win32 interface for Win NT & 2000
Used output format : Internal WAV Routines
Sample format : 44.100 Hz; 16 Bit; Stereo
TOC of the extracted CD Track | Start | Length | Start sector | End sector --------------------------------------------------------- 1 | 0:00.01 | 4:45.66 | 1 | 21441 2 | 4:45.67 | 4:04.64 | 21442 | 39805 3 | 8:50.56 | 4:45.16 | 39806 | 61196 4 | 13:35.72 | 4:29.24 | 61197 | 81395 5 | 18:05.21 | 3:46.03 | 81396 | 98348 6 | 21:51.24 | 4:17.46 | 98349 | 117669 7 | 26:08.70 | 4:03.01 | 117670 | 135895 8 | 30:11.71 | 3:25.22 | 135896 | 151292 9 | 33:37.18 | 4:50.36 | 151293 | 173078 10 | 38:27.54 | 5:01.66 | 173079 | 195719
Range status and errors
Selected range Filename H:\Eva Cassidy - Songbird {BlixStreet}[xrcd]\Eva Cassidy - Songbird {BlixStreet}[xrcd].wav Peak level 100.0 % Range quality 100.0 % Test CRC 8AFFCF18 Copy CRC 8AFFCF18 Copy OK
No errors occurred
AccurateRip summary
Track 1 accurately ripped (confidence 4) [CE3BE5E0]
Track 2 accurately ripped (confidence 4) [C74E3052]
Track 3 accurately ripped (confidence 4) [A602F097]
Track 4 accurately ripped (confidence 4) [6F576873]
Track 5 accurately ripped (confidence 4) [E4D41224]
Track 6 accurately ripped (confidence 4) [B96C25C8]
Track 7 accurately ripped (confidence 4) [E75D53CD]
Track 8 accurately ripped (confidence 4) [CC4F5A97]
Track 9 accurately ripped (confidence 4) [CCFDDC03]
Track 10 accurately ripped (confidence 4) [5FB43C58]
All tracks accurately ripped
End of status report
Содержание индексной карты (.CUE)
REM ACCURATERIPID 00106a89-00829ef2-790a310a
REM GENRE "Jazz"
REM DATE 1998
REM DISCID 790A310A
REM COMMENT "ExactAudioCopy v0.99pb5"
PERFORMER "Eva Cassidy"
TITLE "Songbird {BlixStreet}[xrcd]"
FILE "01 - Fields of Gold.flac" WAVE TRACK 01 AUDIO TITLE "Fields of Gold" PERFORMER "Eva Cassidy" PREGAP 00:00:01 INDEX 01 00:00:00
FILE "02 - Wade in the Water.flac" WAVE TRACK 02 AUDIO TITLE "Wade in the Water" PERFORMER "Eva Cassidy" INDEX 01 00:00:00
FILE "03 - Autumn Leaves.flac" WAVE TRACK 03 AUDIO TITLE "Autumn Leaves" PERFORMER "Eva Cassidy" INDEX 01 00:00:00
FILE "04 - Wayfaring Stranger.flac" WAVE TRACK 04 AUDIO TITLE "Wayfaring Stranger" PERFORMER "Eva Cassidy" INDEX 01 00:00:00
FILE "05 - Songbird.flac" WAVE TRACK 05 AUDIO TITLE "Songbird" PERFORMER "Eva Cassidy" INDEX 01 00:00:00
FILE "06 - Time is a Healer.flac" WAVE TRACK 06 AUDIO TITLE "Time is a Healer" PERFORMER "Eva Cassidy" INDEX 01 00:00:00
FILE "07 - I Know You By Heart.flac" WAVE TRACK 07 AUDIO TITLE "I Know You By Heart" PERFORMER "Eva Cassidy" INDEX 01 00:00:00
FILE "08 - People Get Ready.flac" WAVE TRACK 08 AUDIO TITLE "People Get Ready" PERFORMER "Eva Cassidy" INDEX 01 00:00:00
FILE "09 - Oh, Had I a Golden Thread.flac" WAVE TRACK 09 AUDIO TITLE "Oh, Had I a Golden Thread" PERFORMER "Eva Cassidy" INDEX 01 00:00:00
FILE "10 - Over the Rainbow.flac" WAVE TRACK 10 AUDIO TITLE "Over the Rainbow" PERFORMER "Eva Cassidy" INDEX 01 00:00:00
Лог проверки качества
AUDIOCHECKER v2.0 beta (build 457) - by Dester - opdester@freemail.hu
~~~~~~~~~~~~~~~~~~~~~~~~~~~~~~~~~~
Started at: вторник, 06. 12. 2016. - 11:23.48
10 files found
01 -===- D:\EXIT\Eva Cassidy - Songbird [XRCD24]\01 - Fields of Gold.flac Extracted successfully Conclusion: this track is CDDA with probability 100% Tempfile successfully deleted.
02 -===- D:\EXIT\Eva Cassidy - Songbird [XRCD24]\02 - Wade in the Water.flac Extracted successfully Conclusion: this track is CDDA with probability 100% Tempfile successfully deleted.
03 -===- D:\EXIT\Eva Cassidy - Songbird [XRCD24]\03 - Autumn Leaves.flac Extracted successfully Conclusion: this track is CDDA with probability 100% Tempfile successfully deleted.
04 -===- D:\EXIT\Eva Cassidy - Songbird [XRCD24]\04 - Wayfaring Stranger.flac Extracted successfully Conclusion: this track is CDDA with probability 100% Tempfile successfully deleted.
05 -===- D:\EXIT\Eva Cassidy - Songbird [XRCD24]\05 - Songbird.flac Extracted successfully Conclusion: this track is CDDA with probability 100% Tempfile successfully deleted.
06 -===- D:\EXIT\Eva Cassidy - Songbird [XRCD24]\06 - Time is a Healer.flac Extracted successfully Conclusion: this track is CDDA with probability 100% Tempfile successfully deleted.
07 -===- D:\EXIT\Eva Cassidy - Songbird [XRCD24]\07 - I Know You By Heart.flac Extracted successfully Conclusion: this track is CDDA with probability 100% Tempfile successfully deleted.
08 -===- D:\EXIT\Eva Cassidy - Songbird [XRCD24]\08 - People Get Ready.flac Extracted successfully Conclusion: this track is CDDA with probability 100% Tempfile successfully deleted.
09 -===- D:\EXIT\Eva Cassidy - Songbird [XRCD24]\09 - Oh, Had I a Golden Thread.flac Extracted successfully Conclusion: this track is CDDA with probability 100% Tempfile successfully deleted.
10 -===- D:\EXIT\Eva Cassidy - Songbird [XRCD24]\10 - Over the Rainbow.flac Extracted successfully Conclusion: this track is CDDA with probability 100% Tempfile successfully deleted.
Finished at: вторник, 06. 12. 2016. - 11:36.43 (operation time: 0:12.54)
Приватный:
Нет (DHT включён)
Размер:
304.65 Мб (319,447,936 байт) » файлов: 26
Участники:
0 раздают, 0 качают (0 участников всего)
Внешние участники:
8 раздают, 2 качают (10 участников всего) [ Обновить ]
11:51
85
RSS
Нет комментариев. Ваш будет первым!