Поиск

2015 Jenna Mammina & Rolf Sturm - Wicked - Live in the Studio (2021) {Blue Coast} [24-192]

2015 Jenna Mammina & Rolf Sturm - Wicked - Live in the Studio (2021) {Blue Coast} [24-192]
Стили:
Дата переиздания диска:
22 октября 2021
Носитель:
WEB
Формат:
PCM
Тип рипа:
tracks
Контейнер:
FLAC (*.flac)
Количество каналов:
2.0
Разрядность/ЧД:
24/192
Битрейт аудио:
lossless
Наличие сканов:
только обложка

01 - Wicked Game (00:04:18)
02 - Bluer Than Blue (00:03:42)
03 - I Love A Rainy Night (00:03:21)
04 - I Want You To Want Me (00:03:33)
05 - Hello It's Me (00:04:11)
06 - Bitter With The Sweet (00:04:32)
07 - Tin Man (00:04:01)
08 - A Place That I Call Home (00:03:57)
09 - Second Star To The Right (00:05:53)
10 - I'm Old Fashioned (00:04:01)

Состав:
  • Jenna Mammina: Vocals
  • Rolf Sturm: Guitar
  • Recorded, Mixed and Mastered by Cookie Marenco

ESE LogoExtended Sound Environment (E.S.E.)
Asst. Engineers: Patrick O'Connor, Albert Llaguno, Olga Kapustina
Rolf Sturm plays a Cervantes Crossover 1 Signature Series guitar cervantesguitars.com
Original release 2015

Происхождение: Запись в DSD64 и микширование через аналоговую консоль в DSD128. Ремастеринг в DSD256 с использованием нашего SEA Process

SEA Logo
Лог проверки качества
foobar2000 1.4.2 / Dynamic Range Meter 1.1.1
log date: 2022-02-05 17:07:03
--------------------------------------------------------------------------------
Analyzed: Jenna Mammina / Wicked
--------------------------------------------------------------------------------
DR         Peak         RMS     Duration Track
--------------------------------------------------------------------------------
DR15      -1.69 dB   -23.49 dB      4:19 01-Wicked Game (Live in the Studio - E.S.E.)
DR13      -1.79 dB   -20.34 dB      3:43 02-Bluer Than Blue (Live in the Studio - E.S.E.)
DR14      -1.26 dB   -18.02 dB      3:21 03-I Love A Rainy Night (Live in the Studio - E.S.E.)
DR13      -1.60 dB   -18.75 dB      3:33 04-I Want You To Want Me (Live in the Studio - E.S.E.)
DR15      -1.76 dB   -20.87 dB      4:12 05-Hello It's Me (Live in the Studio - E.S.E.)
DR12      -1.83 dB   -17.55 dB      4:33 06-Bitter With The Sweet (Live in the Studio - E.S.E.)
DR14      -3.18 dB   -21.98 dB      4:02 07-Tin Man (Live in the Studio - E.S.E.)
DR13      -1.64 dB   -17.31 dB      3:58 08-A Place That I Call Home (Live in the Studio - E.S.E.)
DR15      -3.25 dB   -23.87 dB      5:53 09-Second Star To The Right (Live in the Studio - E.S.E.)
DR13      -1.37 dB   -18.16 dB      4:01 10-I'm Old Fashioned (Live in the Studio - E.S.E.)
--------------------------------------------------------------------------------
Number of tracks:  10
Official DR value: DR14
Samplerate:        192000 Hz
Channels:          2
Bits per sample:   24
Bitrate:           5205 kbps
Codec:             FLAC
================================================================================
Приватный:
Нет (DHT включён)
Размер:
1.49 Гб (1,597,858,540 байт) » файлов: 11
Участники:
0 раздают, 0 качают (0 участников всего)
Внешние участники:
2 раздают, 1 качают (3 участников всего) [ Обновить ]
11:21
438
Нет комментариев. Ваш будет первым!