Поиск

1999 Michel Petrucciani, Steve Gadd & Anthony Jackson - Trio in Tokyo (Live) (2009 Bonus Track Version) {Dreyfus Jazz} [24-88.2]

1999 Michel Petrucciani, Steve Gadd & Anthony Jackson - Trio in Tokyo (Live) (2009 Bonus Track Version) {Dreyfus Jazz} [24-88.2]
Стили:
Дата записи диска:
ноябрь 1997
Место записи:
The Blue Note, Tokyo, Japane
Издатель (лейбл):
Номер по каталогу:
FDM 36605-2
Носитель:
WEB
Формат:
PCM
Тип рипа:
tracks
Контейнер:
FLAC (*.flac)
Количество каналов:
2.0
Разрядность/ЧД:
24/88,2
Битрейт аудио:
lossless
Время звучания:
01:10:40
Наличие сканов:
только обложка

01 - Training 04:40
02 - September Second 05:19
03 - Home 09:17
04 - Little Peace in C for U 07:30
05 - Love Letter 09:06
06 - Cantabile 07:48
07 - Colors 10:49
08 - So What 07:08
09 - Take the "A" Train (Bonus Track) 09:03

Состав:
  • Bass – Anthony Jackson
  • Drums – Steve Gadd
  • Engineer – Roger Roche
  • Liner Notes – Pascal Anquetil
  • Mastered By – Stuart Hawkes
  • Mixed By – René Ameline
  • Piano – Michel Petrucciani
  • Producer – Francis Dreyfus
Лог проверки качества
foobar2000 1.4.3 / Dynamic Range Meter 1.1.1
log date: 2022-02-06 03:34:42
--------------------------------------------------------------------------------
Analyzed: Michel Petrucciani, Michel Petrucciani / Trio in Tokyo (Live)
--------------------------------------------------------------------------------
DR         Peak         RMS     Duration Track
--------------------------------------------------------------------------------
DR7       -0.10 dB    -9.80 dB      4:41 01-Training (Live)
DR7       -0.10 dB    -9.46 dB      5:19 02-September Second (Live)
DR8       -0.10 dB   -13.38 dB      9:18 03-Home (Live)
DR9       -0.10 dB   -12.58 dB      7:30 04-Little Peace in C for U (Live)
DR13      -0.10 dB   -16.91 dB      9:06 05-Love Letter (Live)
DR8       -0.10 dB   -12.90 dB      7:49 06-Cantabile (Live)
DR7       -0.10 dB   -10.92 dB     10:50 07-Colors (Live)
DR7       -0.10 dB   -11.40 dB      7:08 08-So What (Live)
DR8       -0.10 dB   -10.33 dB      9:03 09-Take the "A" Train (Live) (Bonus Track)
--------------------------------------------------------------------------------
Number of tracks:  9
Official DR value: DR8
Samplerate:        88200 Hz
Channels:          2
Bits per sample:   24
Bitrate:           2769 kbps
Codec:             FLAC
================================================================================
13:07
569
Нет комментариев. Ваш будет первым!