Поиск

2015 Felipe Cabrera & Leonardo Montana - Night Poems (2019) {Felipe Cabrera Productions} [24-44.1]

2015 Felipe Cabrera & Leonardo Montana - Night Poems (2019) {Felipe Cabrera Productions} [24-44.1]
Дата издания диска:
6 июня 2015
Дата переиздания диска:
27 сентября 2019
Носитель:
WEB
Формат:
PCM
Тип рипа:
tracks
Контейнер:
FLAC (*.flac)
Количество каналов:
2.0
Разрядность/ЧД:
24/44,1
Битрейт аудио:
lossless
Время звучания:
01:02:05
Наличие сканов:
только обложка

01. Dulce herencia (6:19)
02. Agora sim (5:05)
03. Ya no estan (3:46)
04. A noite (5:10)
05. Samuel (2:42)
06. San Cristobal (3:36)
07. Harufe (6:07)
08. If (3:43)
09. 696 (4:06)
10. A Camilin (4:25)
11. Gospel (7:39)
12. Desde abril (5:34)
13. Louis (3:53)
14. bonus track

Состав:
  • Felipe Cabrera — piano
  • Leonardo Montana — bass
Лог проверки качества
foobar2000 1.6.2 / Dynamic Range Meter 1.1.1
log date: 2021-12-03 11:43:46

--------------------------------------------------------------------------------
Analyzed: Felipe Cabrera & Leonardo Montana / Night Poems
--------------------------------------------------------------------------------

DR         Peak         RMS     Duration Track
--------------------------------------------------------------------------------
DR12      -5.14 dB   -20.47 dB      6:19 01-Dulce herencia
DR11      -2.83 dB   -16.11 dB      5:05 02-Agora sim
DR13      -4.09 dB   -21.35 dB      3:47 03-Ya no estan
DR12      -4.54 dB   -21.13 dB      5:10 04-A noite
DR11      -4.71 dB   -18.08 dB      2:43 05-Samuel
DR13      -4.76 dB   -22.13 dB      3:37 06-San Cristobal
DR12      -4.27 dB   -18.88 dB      6:07 07-Harufe
DR11      -3.00 dB   -18.08 dB      3:44 08-If
DR13      -4.05 dB   -19.35 dB      4:07 09-696
DR11      -3.73 dB   -17.28 dB      4:26 10-A Camilin
DR11      -3.11 dB   -16.75 dB      7:39 11-Gospel
DR10      -1.72 dB   -14.58 dB      5:35 12-Desde abril
DR11      -4.91 dB   -19.95 dB      3:54 13-Louis
DR11      -4.91 dB   -19.95 dB      3:54 14-bonus track
--------------------------------------------------------------------------------

Number of tracks:  14
Official DR value: DR12

Samplerate:        44100 Hz
Channels:          2
Bits per sample:   24
Bitrate:           1075 kbps
Codec:             FLAC
================================================================================
Приватный:
Нет (DHT включён)
Размер:
522.61 Мб (547,991,469 байт) » файлов: 17
Участники:
0 раздают, 0 качают (0 участников всего)
Внешние участники:
--- [ Обновить ]
12:53
504
Нет комментариев. Ваш будет первым!