Поиск

2007 David Hazeltine Trio - Alfie (2018) {Venus} [DSD64 ISO]

2007 David Hazeltine Trio - Alfie (2018) {Venus} [DSD64 ISO]
Дата записи диска:
31 марта 2006
Место записи:
The Studio, New York City, NY, USA
Дата издания диска:
15 декабря 2007
Издатель (лейбл):
Номер по каталогу:
VHGD-301
Носитель:
SACD
Формат:
DSD
Тип рипа:
image
Контейнер:
ISO (*.iso)
Количество каналов:
2.0
Разрядность/ЧД:
64 (2,8 MHz/1 Bit)
Битрейт аудио:
lossless
Время звучания:
00:58:21
Наличие сканов:
да

Треклист:

01. In Between the Heartaches  04:34
02. Raindrops Falling on My Head  05:17
03. The Look of Love  05:27
04. Walk on By  04:04
05. A House is Not a Home  06:39
06. This Guy's in Love With You  07:52
07. What the World Needs Now is Love  06:27
08. Alfie  05:45
09. I Say a Little Prayer  06:12
10. Close to You  06:04

Состав:
  • Bass – David Williams
  • Drums – Joe Farnsworth
  • Engineer – Katherine Miller
  • Mixed By, Mastered By – Shuji Kitamura
  • Piano – David Hazeltine
  • Producer – Todd Barkan
  • Producer, Mixed By, Mastered By – Tetsuo Hara
Лог проверки качества
foobar2000 1.6.4 / Dynamic Range Meter 1.1.1
log date: 2021-07-08 09:39:48

--------------------------------------------------------------------------------
Analyzed: DAVID HAZELTINE TRIO / Alfie
--------------------------------------------------------------------------------

DR         Peak         RMS     Duration Track
--------------------------------------------------------------------------------
DR8       -4.67 dB   -13.71 dB      4:34 01-In Between The Heartaches
DR8       -4.74 dB   -14.36 dB      5:17 02-Raindrops Falling On My Head
DR9       -4.74 dB   -16.45 dB      5:27 03-The Look Of Love
DR8       -4.68 dB   -15.78 dB      4:04 04-Walk On By
DR8       -4.76 dB   -14.75 dB      6:39 05-A House Is Not A Home
DR8       -4.69 dB   -15.86 dB      7:52 06-This Guy's In Love With You
DR8       -4.67 dB   -14.51 dB      6:27 07-What The World Needs Now Is Love
DR8       -4.68 dB   -14.52 dB      5:45 08-Alfie
DR9       -4.66 dB   -15.67 dB      6:12 09-I Say A Little Prayer
DR8       -4.54 dB   -14.15 dB      6:04 10-Close To You
--------------------------------------------------------------------------------

Number of tracks:  10
Official DR value: DR8

Samplerate:        2822400 Hz / PCM Samplerate: 88200 Hz
Channels:          2
Bits per sample:   1
Bitrate:           5645 kbps
Codec:             DSD64
================================================================================
По всем вопросам пишите личное сообщение пользователю M0p94ok.
12:48
273
Нет комментариев. Ваш будет первым!