Вы используете незарегистрированную версию компонента "Вкладки"!

Поиск

2014 Nils Landgren Funk Unit - Teamwork (Extended Version) {ACT Music} [24-44,1]

2014 Nils Landgren Funk Unit - Teamwork (Extended Version) {ACT Music} [24-44,1]
Стили:
Издатель (лейбл):
Доп. инфо:

Формат записи/Источник записи: [TR24][OF]
Наличие водяных знаков: Нет
Год издания/переиздания диска: 2014
Продолжительность: 01:19:27
Наличие сканов в содержимом раздачи: Буклет PDF

Контейнер: FLAC (*.flac)
Тип рипа: tracks
Разрядность: 24/44,1
Формат: PCM
Количество каналов: 2.0

Источник: highresaudio.com

Лог проверки качества
foobar2000 1.3.9 / Dynamic Range Meter 1.1.1
log date: 2019-12-29 13:16:37

--------------------------------------------------------------------------------
Analyzed: Nils Landgren Funk Unit / Teamwork (Extended Version)
--------------------------------------------------------------------------------

DR         Peak         RMS     Duration Track
--------------------------------------------------------------------------------
DR11      -0.10 dB   -12.51 dB      4:54 01-Get Serious Get A Job
DR13      -0.10 dB   -14.37 dB      5:29 02-My Main Thang
DR12      -0.10 dB   -13.37 dB      4:10 03-You Got It
DR13      -0.10 dB   -14.27 dB      5:11 04-Afriquarius
DR10      -0.10 dB   -12.30 dB      5:06 05-Green Beans
DR11      -0.10 dB   -13.68 dB      5:32 06-Rhythm Is Our Business
DR10      -0.10 dB   -12.18 dB      4:56 07-Living For Love
DR12      -0.10 dB   -13.93 dB      5:56 08-Mr Masumoto
DR10      -0.10 dB   -12.41 dB      6:12 09-Tracksuit
DR11      -0.10 dB   -13.19 dB      4:55 10-Where The Funk Is At
DR11      -0.10 dB   -12.30 dB      5:14 11-Don't Wannit
DR9       -0.10 dB   -11.57 dB      4:57 12-Papa Bull
DR12      -0.10 dB   -13.98 dB      4:10 13-You Got It (Bonus Track)
DR12      -0.10 dB   -14.53 dB      4:22 14-247 Of Nine (Bonus Track)
DR10      -0.10 dB   -12.51 dB      4:55 15-Funky For You (Bonus Track)
DR12      -0.10 dB   -14.30 dB      3:26 16-Fried Green Beans (Bonus Track)
--------------------------------------------------------------------------------

Number of tracks:  16
Official DR value: DR11

Samplerate:        44100 Hz
Channels:          2
Bits per sample:   24
Bitrate:           1594 kbps
Codec:             FLAC
================================================================================
Any questions - support@pro-jazz.com. Есть вопросы - support@pro-jazz.com
00:31
257
Нет комментариев. Ваш будет первым!