Вы используете незарегистрированную версию компонента "Вкладки"!

Поиск

2014 Nils Landgren - Eternal Beauty {ACT Music} [24-88,2]

2014 Nils Landgren - Eternal Beauty {ACT Music} [24-88,2]
Стили:
Доп. инфо:

Формат записи/Источник записи: [TR24][OF]
Наличие водяных знаков: Нет
Год издания/переиздания диска: 2014
Продолжительность: 56:08
Наличие сканов в содержимом раздачи: Буклет PDF

Контейнер: FLAC (*.flac)
Тип рипа: tracks
Разрядность: 24/88,2
Формат: PCM
Количество каналов: 2.0

Источник: highresaudio.com

Лог проверки качества
foobar2000 1.3.9 / Dynamic Range Meter 1.1.1
log date: 2019-12-29 14:19:42

--------------------------------------------------------------------------------
Analyzed: Nils Landgren / Eternal Beauty
--------------------------------------------------------------------------------

DR         Peak         RMS     Duration Track
--------------------------------------------------------------------------------
DR9       -0.23 dB   -11.15 dB      2:51 01-Love Of My Life
DR9       -0.23 dB   -11.51 dB      3:21 02-Another Kind Of Blue
DR8       -0.23 dB   -11.64 dB      4:09 03-Broken Wings
DR10      -0.23 dB   -12.89 dB      4:39 04-Don't Let Me Be Lonely Tonight
DR8       -0.23 dB   -10.46 dB      4:26 05-Green Fields
DR9       -0.23 dB   -12.46 dB      3:15 06-One Frozen Moment
DR9       -0.23 dB   -12.54 dB      4:02 07-Eternal Beauty
DR10      -0.23 dB   -12.96 dB      3:58 08-Isn't It A Pity
DR9       -0.23 dB   -11.96 dB      4:20 09-Get Here
DR9       -0.23 dB   -13.33 dB      3:37 10-One More Angel
DR9       -0.23 dB   -11.15 dB      4:39 11-We Don't Need Another Hero
DR9       -0.23 dB   -11.06 dB      4:42 12-For Your Love
DR9       -0.23 dB   -11.41 dB      4:34 13-Dear Diary
DR8       -0.23 dB   -10.47 dB      3:35 14-Love Is Real
--------------------------------------------------------------------------------

Number of tracks:  14
Official DR value: DR9

Samplerate:        88200 Hz
Channels:          2
Bits per sample:   24
Bitrate:           2567 kbps
Codec:             FLAC
================================================================================
Any questions - support@pro-jazz.com. Есть вопросы - support@pro-jazz.com
00:47
205
Нет комментариев. Ваш будет первым!