Поиск

2014 Kellylee Evans - I Remember When (2017) {Universal Music, Motema Music} [24-44.1]

2014 Kellylee Evans - I Remember When (2017) {Universal Music, Motema Music} [24-44.1]
Стили:
Дата издания диска:
1 сентября 2014
Дата переиздания диска:
1 февраля 2017
Издатель (лейбл):
Битрейт аудио:
lossless
Состав:
  • Kellylee Evans: vocals
  • Eric Löhrer: guitars, bass guitar (3)
  • Sylvain Romano: double bass (1, 4 – 13)
  • Fabrice Moreau: drums (1, 2, 4 – 10, 12, 13)
  • Franck Agulhon: drums (5, 11)
  • Boris Pokora: baritone saxophone (1, 7), tenor saxophone (1, 2, 5, 7, 11), flute (2 – 5, 11, ), bass clarinet (5, 13)
  • Eric Legnini: keyboards (1 – 5, 8, 10, 11, 13), piano (2, 5 – 7, 9 – 11), Hammond B3 (3, 12), Wurlitzer (8, 13); percussion (4, 8, 10)
  • Stéphane Belmondo: bass trumpet (2, 11), flugelhorn (2, 3, 6, 11), trumpet (3, 5, 7)
  • Stéphane Edouard: percussion (2, 3, 4, 9), bongos (11)
Лог проверки качества
foobar2000 1.4.3 / Dynamic Range Meter 1.1.1
log date: 2022-03-25 18:47:43
--------------------------------------------------------------------------------
Analyzed: Kellylee Evans / I Remember When
--------------------------------------------------------------------------------
DR         Peak         RMS     Duration Track
--------------------------------------------------------------------------------
DR8       -0.23 dB    -9.23 dB      3:25 01-My Name Is
DR6       -0.33 dB    -8.56 dB      3:48 02-I Remember When
DR9       -0.23 dB   -10.18 dB      3:22 03-One More Lover
DR9       -0.23 dB   -10.14 dB      3:45 04-And so We Dance (Alors on Danse)
DR9       -0.23 dB   -10.75 dB      3:47 05-Built to Fly
DR9       -0.21 dB   -11.27 dB      4:16 06-Ordinary People
DR7       -0.23 dB    -8.94 dB      5:41 07-Lose Yourself
DR8       -0.23 dB    -9.98 dB      3:26 08-Only You
DR9       -0.23 dB   -10.51 dB      4:06 09-Jungle
DR7       -0.22 dB    -8.95 dB      4:02 10-Again
DR7       -0.22 dB    -8.16 dB      3:45 11-If I Was Your Woman
DR9       -0.23 dB   -10.16 dB      3:17 12-You Got Me (Interlude)
DR8       -0.23 dB    -9.90 dB      3:45 13-Amazing
--------------------------------------------------------------------------------
Number of tracks:  13
Official DR value: DR8
Samplerate:        44100 Hz
Channels:          2
Bits per sample:   24
Bitrate:           1486 kbps
Codec:             FLAC
================================================================================
Приватный:
Нет (DHT включён)
Размер:
566.85 Мб (594,381,615 байт) » файлов: 17
Участники:
0 раздают, 0 качают (0 участников всего)
Внешние участники:
--- [ Обновить ]
11:56
322
Нет комментариев. Ваш будет первым!