Поиск

1959 Art Blakey & The Jazz Messengers - Au Club St Germain, Vol. 2 (2021) {Music Manager} [24-48]

1959 Art Blakey & The Jazz Messengers - Au Club St Germain, Vol. 2 (2021) {Music Manager} [24-48]
Стили:
Дата переиздания диска:
22 июня 2021
Издатель (лейбл):
Битрейт аудио:
lossless

Состав:
Лог проверки качества
foobar2000 1.6.2 / Dynamic Range Meter 1.1.1
log date: 2021-07-25 22:39:39
--------------------------------------------------------------------------------
Analyzed: Art Blakey / Au Club St Germain
--------------------------------------------------------------------------------
DR         Peak         RMS     Duration Track
--------------------------------------------------------------------------------
DR9        0.00 dB   -10.12 dB     14:12 01-Moanin' with Hazel (Live)
DR7        0.00 dB    -9.87 dB      6:47 02-We Named It Justice (Live)
DR11       0.00 dB   -12.67 dB     11:20 03-Blue March for Europe No. 1 (Live)
DR11       0.00 dB   -13.02 dB     11:02 04-Like Someone in Love (Live)
--------------------------------------------------------------------------------
Number of tracks:  4
Official DR value: DR9
Samplerate:        48000 Hz
Channels:          2
Bits per sample:   24
Bitrate:           1165 kbps
Codec:             FLAC
================================================================================
Приватный:
Нет (DHT включён)
Размер:
382.13 Мб (400,687,357 байт) » файлов: 8
Участники:
0 раздают, 0 качают (0 участников всего)
Внешние участники:
--- [ Обновить ]
00:57
310
Нет комментариев. Ваш будет первым!