Поиск

2014 Eric Alexander Quartet - Recado Bossa Nova {Venus} [DSD64 ISO]

2014 Eric Alexander Quartet - Recado Bossa Nova {Venus} [DSD64 ISO]
Дата записи диска:
29 июля 2013
Место записи:
Sony Music Studios, Tokyo
Издатель (лейбл):
Номер по каталогу:
VHGD-63
Носитель:
SACD
Формат:
DSD
Тип рипа:
image
Контейнер:
ISO (*.iso)
Количество каналов:
2.0
Разрядность/ЧД:
64 (2,8 MHz/1 Bit)
Битрейт аудио:
lossless
Время звучания:
00:46:01
Наличие сканов:
только обложка

1. Two Sleepy People《 H. Carmichael 》
2. Mambo Inn《 M. Bauza 》
3. Mantica《 D. Gillespie 》
4. Corcovado《 A. C. Jobim 》
5. Recado Bossa Nova《 D. Fereira 》
6. Here's That Rainy Day《 J. Van Heusen 》
7. Journey《 A. Alexander 》
8. So In Love《 C. Porter 》

Состав:
  • Eric Alexander — tenor sax
  • Harold Mabern — piano
  • Nat Reeves — bass
  • Joe Farnsworth — drums
Лог проверки качества
foobar2000 1.6.8 / Dynamic Range Meter 1.1.1
log date: 2021-12-12 08:07:49
--------------------------------------------------------------------------------
Analyzed: Eric Alexander Quartet / RECADO BOSSA NOVA
--------------------------------------------------------------------------------
DR         Peak         RMS     Duration Track
--------------------------------------------------------------------------------
DR9       -3.95 dB   -14.25 dB      4:25 01-Two Sleepy People
DR9       -3.16 dB   -14.04 dB      5:53 02-Mambo Inn
DR9       -3.83 dB   -14.56 dB      6:34 03-Mantica
DR8       -4.39 dB   -14.48 dB      6:33 04-Corcovado
DR9       -3.55 dB   -14.02 dB      6:13 05-Recado Bossa Nova
DR9       -3.53 dB   -13.79 dB      6:59 06-Here's That Rainy Day
DR10      -3.70 dB   -14.64 dB      4:30 07-Journey
DR9       -3.58 dB   -14.15 dB      4:54 08-So In Love
--------------------------------------------------------------------------------
Number of tracks:  8
Official DR value: DR9
Samplerate:        2822400 Hz / PCM Samplerate: 88200 Hz
Channels:          2
Bits per sample:   1
Bitrate:           5645 kbps
Codec:             DSD64
================================================================================
Приватный:
Нет (DHT включён)
Размер:
1.86 Гб (1,996,005,795 байт) » файлов: 4
Участники:
0 раздают, 1 качают (1 участников всего)
Внешние участники:
3 раздают, 1 качают (4 участников всего) [ Обновить ]
09:50
457
Нет комментариев. Ваш будет первым!