Поиск

2009 Roma Trio - The Four Seasons (2016) {Venus} [DSD64 ISO]

2009 Roma Trio - The Four Seasons (2016) {Venus} [DSD64 ISO]
Дата записи диска:
6 января - 7 января 2008
Место записи:
The House Recording Studio, Rome, Italy
Издатель (лейбл):
Номер по каталогу:
VHGD-175
Носитель:
SACD
Формат:
DSD
Тип рипа:
image
Контейнер:
ISO (*.iso)
Количество каналов:
2.0
Разрядность/ЧД:
64 (2,8 MHz/1 Bit)
Битрейт аудио:
lossless
Время звучания:
01:07:25
Наличие сканов:
только обложка

Треклист:

01. Concerto No.1 in E major, Op.8, RV269 - Spring - 1st Movement - Alleglo  06:18
02. Concerto No.1 in E major, Op.8, RV269 - Spring - 2nd Movemnet - Largo e Pianissimo  06:09
03. Concerto No.1 in E major, Op.8, RV269 - Spring - 3rd Movement - Alleglo Pastorale  05:04
04. Concerto No.2 in G minor, Op.8, RV315 - Summer - 1st Movement - Alleglo non Molto  05:57
05. Concerto No.2 in G minor, Op.8, RV315 - Summer - 2nd Movemnet - Adagio-Presto  04:48
06. Concerto No.3 in F major, Op.8, RV293 - Autumn - 1st Movement - Alleglo  05:57
07. Concerto No.3 in F major, Op.8, RV293 - Autumn - 2nd Movemnet - Adagio Molto-Theme1  04:04
08. Concerto No.3 in F major, Op.8, RV293 - Autumn - 2nd Movemnet - Adagio Molto-Theme2  05:18
09. Concerto No.3 in F major, Op.8, RV293 - Autumn - 3rd Movement - Allegro  08:07
10. Concerto No.4 in F minor, Op.8, RV297 - Winter - 1st Movement - Alleglo non Molto  05:17
11. Concerto No.4 in F minor, Op.8, RV297 - Winter - 2nd Movemnet - Largo  05:40
12. Concerto No.4 in F minor, Op.8, RV297 - Winter - 3rd Movement - Allegro  05:31

Состав:
  •     Bass – Gianluca Renzi
  •     Drums – Nicola Angelucci
  •     Engineer – Simone Ciammarughi
  •     Mastered By – Shuji Kitamura, Tetsuo Hara
  •     Mixed By – Shuji Kitamura, Tetsuo Hara
  •     Piano – Luca Mannutza
  •     Producer – Tetsuo Hara
Лог проверки качества
foobar2000 1.6.8 / Dynamic Range Meter 1.1.1
log date: 2021-12-13 18:30:58
--------------------------------------------------------------------------------
Analyzed: ROMA TRIO / The Four Seasons
--------------------------------------------------------------------------------
DR         Peak         RMS     Duration Track
--------------------------------------------------------------------------------
DR9       -5.09 dB   -16.56 dB      6:14 01-Concerto No.1 In E Major, Op.8, Rv269 ~Spring~ 1st Movement "Alleglo"
DR8       -5.35 dB   -16.45 dB      6:05 02-Concerto No.1 In E Major, Op.8, Rv269 ~Spring~ 2nd Movement "Largo E Pianissimo"
DR7       -5.21 dB   -15.46 dB      5:00 03-Concerto No.1 In E Major, Op.8, Rv269 ~Spring~ 3rd Movement "Alleglo Pastorale"
DR9       -5.36 dB   -17.37 dB      5:53 04-Concerto No.2 In G Minor, Op.8, Rv315 ~Summer~ 1st Movement "Alleglo Non Molto"
DR12      -5.47 dB   -21.11 dB      4:44 05-Concerto No.2 In G Minor, Op.8, Rv315 ~Summer~ 2nd Movement "Adagio - Presto"
DR9       -5.40 dB   -17.81 dB      5:53 06-Concerto No.3 In F Major, Op.8, Rv293 ~Autumn~ 1st Movement "Allegro"
DR8       -5.45 dB   -17.46 dB      4:00 07-Concerto No.3 In F Major, Op.8, Rv293 ~Autumn~ 2nd Movement "Adagio Molto"(Theme1)
DR10      -5.53 dB   -19.09 dB      5:14 08-Concerto No.3 In F Major, Op.8, Rv293 ~Autumn~ 2nd Movement "Adagio Molto"(Theme2)
DR8       -5.13 dB   -15.67 dB      8:03 09-Concerto No.3 In F Major, Op.8, Rv293 ~Autumn~ 3rd Movement "Allegro"
DR8       -5.00 dB   -15.80 dB      5:13 10-Concerto No.4, In F Minor, Op.8,Rv297 ~Winter~ 1st Movement "Alleglo Non Molto"
DR8       -4.75 dB   -15.99 dB      5:36 11-Concerto No.4, In F Minor, Op.8,Rv297 ~Winter~ 2nd Movement "Largo"
DR11      -5.43 dB   -19.62 dB      5:31 12-Concerto No.4, In F Minor, Op.8,Rv297 ~Winter~ 3rd Movement "Allegro"
--------------------------------------------------------------------------------
Number of tracks:  12
Official DR value: DR9
Samplerate:        2822400 Hz / PCM Samplerate: 88200 Hz
Channels:          2
Bits per sample:   1
Bitrate:           5645 kbps
Codec:             DSD64
================================================================================
09:28
366
Нет комментариев. Ваш будет первым!