Поиск

2014 Bebel Gilberto - Tudo {Sony, Portrait 88843 06654 2} [CD]

2014 Bebel Gilberto - Tudo {Sony, Portrait 88843 06654 2} [CD]
Место записи:
Estúdio Marini, Rio De Janeiro, Brazil Estúdio Nas Nuvens, Rio De Janeiro, Brazil MCJ Studios, Los Angeles, CA MK Studios, Belém, Brazil Pinewave Studio, Portland, OR Superlegal Studios, Brooklyn, NY
Дата издания диска:
19 августа 2014
Издатель (лейбл):
Номер по каталогу:
88843 06654 2
Треклист:

01. Somewhere Else (4:12)
02. Nada Nao (3:06)
03. Tom de Voz (2:39)
04. Novas Ideias (3:27)
05. Harvest Moon (5:06)
06. Tudo (3:19)
07. Saudade Vem Correndo (2:58)
08. Areia (3:56)
09. Tout Est Bleu (3:46)
10. Lonely in My Heart (3:36)
11. Vivo Sonhando (2:40)
12. Inspiracao (3:42)

Доп. инфо:
Лог создания рипа
Exact Audio Copy V1.0 beta 3 from 29. August 2011
EAC extraction logfile from 19. October 2014, 21:32
Bebel Gilberto / Tudo
Used drive : ASUS DRW-24F1ST b Adapter: 0 ID: 0
Read mode : Secure
Utilize accurate stream : Yes
Defeat audio cache : Yes
Make use of C2 pointers : No
Read offset correction : 6
Overread into Lead-In and Lead-Out : No
Fill up missing offset samples with silence : Yes
Delete leading and trailing silent blocks : No
Null samples used in CRC calculations : Yes
Used interface : Native Win32 interface for Win NT & 2000
Gap handling : Appended to previous track
Used output format : User Defined Encoder
Selected bitrate : 1024 kBit/s
Quality : High
Add ID3 tag : No
Command line compressor : C:\Program Files (x86)\Exact Audio Copy\Flac\flac.exe
Additional command line options : -8 -V -T "ARTIST=%artist%" -T "TITLE=%title%" -T "ALBUM=%albumtitle%" -T "DATE=%year%" -T "TRACKNUMBER=%tracknr%" -T "GENRE=%genre%" -T "PERFORMER=%albuminterpret%" -T "COMPOSER=%composer%" %haslyrics%--tag-from-file=LYRICS="%lyricsfile%"%haslyrics% -T "ALBUMARTIST=%albumartist%" -T "DISCNUMBER=%cdnumber%" -T "TOTALDISCS=%totalcds%" -T "TOTALTRACKS=%numtracks%" -T "COMMENT=%comment%" %source% -o %dest%
TOC of the extracted CD
Track | Start | Length | Start sector | End sector
---------------------------------------------------------
1 | 0:00.00 | 4:12.00 | 0 | 18899
2 | 4:12.00 | 3:06.05 | 18900 | 32854
3 | 7:18.05 | 2:39.07 | 32855 | 44786
4 | 9:57.12 | 3:26.69 | 44787 | 60305
5 | 13:24.06 | 5:05.57 | 60306 | 83237
6 | 18:29.63 | 3:19.34 | 83238 | 98196
7 | 21:49.22 | 2:58.21 | 98197 | 111567
8 | 24:47.43 | 3:56.31 | 111568 | 129298
9 | 28:43.74 | 3:46.29 | 129299 | 146277
10 | 32:30.28 | 3:36.27 | 146278 | 162504
11 | 36:06.55 | 2:40.11 | 162505 | 174515
12 | 38:46.66 | 3:41.56 | 174516 | 191146
Track 1
Filename C:\EAC-Rips\Tudo - Bebel Gilberto (2014) [FLAC]\01 - Somewhere Else.wav
Pre-gap length 0:00:02.00
Peak level 100.0 %
Extraction speed 1.6 X
Track quality 99.9 %
Test CRC 35A0B01A
Copy CRC 35A0B01A
Accurately ripped (confidence 2) [61C5A56B] (AR v2)
Copy OK
Track 2
Filename C:\EAC-Rips\Tudo - Bebel Gilberto (2014) [FLAC]\02 - Nada Não.wav
Peak level 100.0 %
Extraction speed 2.2 X
Track quality 100.0 %
Test CRC 96405F53
Copy CRC 96405F53
Accurately ripped (confidence 2) [886016EF] (AR v2)
Copy OK
Track 3
Filename C:\EAC-Rips\Tudo - Bebel Gilberto (2014) [FLAC]\03 - Tom De Voz.wav
Peak level 100.0 %
Extraction speed 2.3 X
Track quality 100.0 %
Test CRC 12C4B873
Copy CRC 12C4B873
Accurately ripped (confidence 2) [13EA676F] (AR v2)
Copy OK
Track 4
Filename C:\EAC-Rips\Tudo - Bebel Gilberto (2014) [FLAC]\04 - Novas Ideias.wav
Peak level 100.0 %
Extraction speed 2.5 X
Track quality 100.0 %
Test CRC 52F40331
Copy CRC 52F40331
Accurately ripped (confidence 2) [19F222E7] (AR v2)
Copy OK
Track 5
Filename C:\EAC-Rips\Tudo - Bebel Gilberto (2014) [FLAC]\05 - Harvest Moon.wav
Peak level 100.0 %
Extraction speed 2.2 X
Track quality 99.9 %
Test CRC DD141192
Copy CRC DD141192
Accurately ripped (confidence 2) [6FD9AC80] (AR v2)
Copy OK
Track 6
Filename C:\EAC-Rips\Tudo - Bebel Gilberto (2014) [FLAC]\06 - Tudo.wav
Peak level 100.0 %
Extraction speed 2.8 X
Track quality 100.0 %
Test CRC 977962F4
Copy CRC 977962F4
Accurately ripped (confidence 2) [530E9DD6] (AR v2)
Copy OK
Track 7
Filename C:\EAC-Rips\Tudo - Bebel Gilberto (2014) [FLAC]\07 - Saudade Vem Correndo.wav
Peak level 100.0 %
Extraction speed 2.0 X
Track quality 99.9 %
Test CRC 803777B3
Copy CRC 803777B3
Accurately ripped (confidence 2) [37CA0F15] (AR v2)
Copy OK
Track 8
Filename C:\EAC-Rips\Tudo - Bebel Gilberto (2014) [FLAC]\08 - Areia.wav
Peak level 100.0 %
Extraction speed 3.1 X
Track quality 100.0 %
Test CRC F449745C
Copy CRC F449745C
Accurately ripped (confidence 2) [0805C8D8] (AR v2)
Copy OK
Track 9
Filename C:\EAC-Rips\Tudo - Bebel Gilberto (2014) [FLAC]\09 - Tout Est Bleu.wav
Peak level 100.0 %
Extraction speed 2.3 X
Track quality 99.9 %
Test CRC 2EF5AA8D
Copy CRC 2EF5AA8D
Accurately ripped (confidence 2) [19680EFF] (AR v2)
Copy OK
Track 10
Filename C:\EAC-Rips\Tudo - Bebel Gilberto (2014) [FLAC]\10 - Lonely In My Heart.wav
Peak level 100.0 %
Extraction speed 3.3 X
Track quality 100.0 %
Test CRC D8826120
Copy CRC D8826120
Accurately ripped (confidence 2) [B1790073] (AR v2)
Copy OK
Track 11
Filename C:\EAC-Rips\Tudo - Bebel Gilberto (2014) [FLAC]\11 - Vivo Sonhando.wav
Peak level 100.0 %
Extraction speed 3.2 X
Track quality 100.0 %
Test CRC C1E4DCDA
Copy CRC C1E4DCDA
Accurately ripped (confidence 2) [6DB9A01D] (AR v2)
Copy OK
Track 12
Filename C:\EAC-Rips\Tudo - Bebel Gilberto (2014) [FLAC]\12 - Inspiração.wav
Peak level 100.0 %
Extraction speed 2.5 X
Track quality 99.9 %
Test CRC 213621A3
Copy CRC 213621A3
Accurately ripped (confidence 2) [4AAB7980] (AR v2)
Copy OK
All tracks accurately ripped
No errors occurred
End of status report
---- CUETools DB Plugin V2.1.3
[CTDB TOCID: JAC_1Edgh3szBuVqMY16zx04Xs8-] found, Submit result: JAC_1Edgh3szBuVqMY16zx04Xs8- has been confirmed
[1fbd5b92] (7/7) Accurately ripped
==== Log checksum 34B70D76BEC2D50087E1D7A46DF1122AD59539D4BE80724497939569CCF31C1C ====
Содержание индексной карты (.CUE)
REM GENRE Jazz
REM DATE 2014
REM DISCID 9A09F40C
REM COMMENT "ExactAudioCopy v1.0b3"
PERFORMER "Bebel Gilberto"
TITLE "Tudo"
FILE "01 - Somewhere Else.wav" WAVE
TRACK 01 AUDIO
TITLE "Somewhere Else"
PERFORMER "Bebel Gilberto"
ISRC USSM11403108
INDEX 01 00:00:00
FILE "02 - Nada Nao.wav" WAVE
TRACK 02 AUDIO
TITLE "Nada Nao"
PERFORMER "Bebel Gilberto"
ISRC USSM11403109
INDEX 01 00:00:00
FILE "03 - Tom de Voz.wav" WAVE
TRACK 03 AUDIO
TITLE "Tom de Voz"
PERFORMER "Bebel Gilberto"
ISRC USSM11403110
INDEX 01 00:00:00
FILE "04 - Novas Ideias.wav" WAVE
TRACK 04 AUDIO
TITLE "Novas Ideias"
PERFORMER "Bebel Gilberto"
ISRC USSM11403111
INDEX 01 00:00:00
FILE "05 - Harvest Moon.wav" WAVE
TRACK 05 AUDIO
TITLE "Harvest Moon"
PERFORMER "Bebel Gilberto"
ISRC USSM11403112
INDEX 01 00:00:00
FILE "06 - Tudo.wav" WAVE
TRACK 06 AUDIO
TITLE "Tudo"
PERFORMER "Bebel Gilberto"
ISRC USSM11403113
INDEX 01 00:00:00
FILE "07 - Saudade Vem Correndo.wav" WAVE
TRACK 07 AUDIO
TITLE "Saudade Vem Correndo"
PERFORMER "Bebel Gilberto"
ISRC USSM11403114
INDEX 01 00:00:00
FILE "08 - Areia.wav" WAVE
TRACK 08 AUDIO
TITLE "Areia"
PERFORMER "Bebel Gilberto"
ISRC USSM11403115
INDEX 01 00:00:00
FILE "09 - Tout Est Bleu.wav" WAVE
TRACK 09 AUDIO
TITLE "Tout Est Bleu"
PERFORMER "Bebel Gilberto"
ISRC USSM11403116
INDEX 01 00:00:00
FILE "10 - Lonely in My Heart.wav" WAVE
TRACK 10 AUDIO
TITLE "Lonely in My Heart"
PERFORMER "Bebel Gilberto"
ISRC USSM11403117
INDEX 01 00:00:00
FILE "11 - Vivo Sonhando.wav" WAVE
TRACK 11 AUDIO
TITLE "Vivo Sonhando"
PERFORMER "Bebel Gilberto"
ISRC USSM11403118
INDEX 01 00:00:00
FILE "12 - Inspiracao.wav" WAVE
TRACK 12 AUDIO
TITLE "Inspiracao"
PERFORMER "Bebel Gilberto"
ISRC USSM11403119
INDEX 01 00:00:00
Отчет CUETools
[CUETools log; Date: 25.02.2019 23:26:12; Version: 2.1.6]
[CTDB TOCID: JAC_1Edgh3szBuVqMY16zx04Xs8-] found.
Track | CTDB Status
1 | (84/88) Accurately ripped, or (3/88) differs in 9216 samples @00:09:16-00:09:24
2 | (87/88) Accurately ripped
3 | (87/88) Accurately ripped
4 | (87/88) Accurately ripped
5 | (87/88) Accurately ripped
6 | (87/88) Accurately ripped
7 | (87/88) Accurately ripped
8 | (87/88) Accurately ripped
9 | (87/88) Accurately ripped
10 | (87/88) Accurately ripped
11 | (87/88) Accurately ripped
12 | (87/88) Accurately ripped
[AccurateRip ID: 001320dc-00b25e34-9a09f40c] found.
Track [ CRC | V2 ] Status
01 [a6b96d7f|61c5a56b] (00+37/37) Accurately ripped
02 [def6d30d|886016ef] (00+36/36) Accurately ripped
03 [5aa5a7d8|13ea676f] (00+36/36) Accurately ripped
04 [afe468fa|19f222e7] (00+36/36) Accurately ripped
05 [73ca4ecc|6fd9ac80] (00+37/37) Accurately ripped
06 [20d55885|530e9dd6] (00+36/36) Accurately ripped
07 [1f4aa7d7|37ca0f15] (00+36/36) Accurately ripped
08 [ec616198|0805c8d8] (00+36/36) Accurately ripped
09 [8643288a|19680eff] (00+36/36) Accurately ripped
10 [131ca836|b1790073] (00+36/36) Accurately ripped
11 [bf25e994|6db9a01d] (00+37/37) Accurately ripped
12 [2567074c|4aab7980] (00+37/37) Accurately ripped
Track Peak [ CRC32 ] [W/O NULL] [ LOG ]
-- 100,0 [8B012DD1] [F2B4ECBA]
01 100,0 [35A0B01A] [0C0D35F0] CRC32
02 100,0 [96405F53] [0D6BFDBA] CRC32
03 100,0 [12C4B873] [3061BE2F] CRC32
04 100,0 [52F40331] [D5AD3C83] CRC32
05 100,0 [DD141192] [4F3DADA0] CRC32
06 100,0 [977962F4] [14A59E9F] CRC32
07 100,0 [803777B3] [9320D157] CRC32
08 100,0 [F449745C] [1B20B9E8] CRC32
09 100,0 [2EF5AA8D] [406EB207] CRC32
10 100,0 [D8826120] [E0B898E6] CRC32
11 100,0 [C1E4DCDA] [5F720C95] CRC32
12 100,0 [213621A3] [0E85743A] CRC32
AllMusic Review by Thom Jurek
Tudo is Brazilian singer and songwriter Bebel Gilberto's first album in five years. It marks a reunion with producer Mario Caldato, Jr., who helmed her breakthrough offering, 2000's Tanto Tempo. Recorded in six different studios in America and Brazil, Gilberto's MPB weds modern bossa, samba, contemporary jazz, and adult pop. Tudo's sound is elegant, more restrained yet more colorful than anything she's attempted before. She wrote or co-wrote seven of these tunes and sings in Portuguese, English, and French. The dreamy, sun-drenched opener, "Somewhere Else," with bossa guitars, jazzy piano, brushed drums, and gentle percussion, is brilliantly but subtly illustrated by a slightly dramatic string arrangement from Miguel Atwood-Ferguson (who does the same on two other selections), making the tune a kind of manifesto. That determination is furthered in "Nada Nāo," as Gilberto is supported by acoustic guitar, bass, and a bevy of percussion instruments. "Novas Ideias" is a sprightly, sly, jazzy samba in duet with her co-writer, Seu Jorge, complete with his killer scat singing. One of the two big surprises here is her sensual reading of Neil Young's "Harvest Moon." Gorgeous in its romanticism, a gentle bossa backbeat is played by an array of percussion, given added dimension by upright and arco basses, lap steel, tres, piano, and acoustic guitars that all float in the humid space behind her voice. The other is a worthy cover of Luiz Bonfá's classic "Saudade Vem Correndo," with Didi Gutman's Walter Wanderley-esque organ, two flutes, guitar, and bass. The tempo is elastic, balancing jazz and samba. "Tout Est Bleu," composed by Andrew Anisere, Allioum Ba, and the late Pascale Hospital, is almost a contemporary jazz update of Pierre Barouh's Saravah Records' sound. "Lonely in My Heart," the other side of the emotions expressed on the set's first two tracks, is given a spacy, slightly psychedelic pop treatment, with sitar next to guitars, loops, and percussion. This is almost countered by Gilberto's reading of Tom Jobim's "Vivo Sonhando," a bossa nova closely associated with her father, João, revealing her command of the genre's musical language. Closer "Inspiraçāo," with its dubby synths and loops, is the only real concession to modern club, but a fine one. Given Gilberto's effortless presentation, Tudo seems somewhat sleepy on first listen. However, given the variety of its songs, her emotional commitment, and the simple yet sophisticated arrangements, the album gradually unfolds into something nearly magical once the listener moves further in.
Приватный:
Нет (DHT включён)
Размер:
266.17 Мб (279,102,075 байт) » файлов: 19
Участники:
0 раздают, 0 качают (0 участников всего)
Внешние участники:
2 раздают, 1 качают (3 участников всего) [ Обновить ]
No seeders - write a personal message to user M0p94ok. Нет сидеров - пишите личное сообщение пользователю M0p94ok.
03:03
58
Нет комментариев. Ваш будет первым!