Поиск

2013 Django Reinhardt - European Swing Giants, Vol.6: The Ultraphone Sessions (Paris 1934-1935), Rhythme (Brussels 1942) {Jube Pops} [24-48]

2013 Django Reinhardt - European Swing Giants, Vol.6: The Ultraphone Sessions (Paris 1934-1935), Rhythme (Brussels 1942) {Jube Pops} [24-48]
Стили:
Носитель:
WEB
Формат:
PCM
Тип рипа:
tracks
Контейнер:
FLAC (*.flac)
Количество каналов:
2.0
Разрядность/ЧД:
24/48
Битрейт аудио:
lossless
Наличие сканов:
только обложка
Релизёр (источник):
Qobuz

 

This album is available on our DC++ hub:
Этот альбом доступен на нашем DC++ хабе:
dchub://hub.pro-jazz.com:7777

1. Djangology - Stéphane Grappelli
2. Tiger Rag - Stéphane Grappelli
3. I Saw Stars - Stéphane Grappelli
4. Some of these Days - Stéphane Grappelli
5. Clouds - Stéphane Grappelli
6. Believe It, Beloved - Stéphane Grappelli
7. Avalon - Arthur Briggs
8. Smoke Rings - Stéphane Grappelli
9. Ultrafox - Stéphane Grappelli
10. Ton doux sourire - Stéphane Grappelli
11. Swanee River - Stéphane Grappelli
12. Blue Drag - Stéphane Grappelli
13. Dinah - Stéphane Grappelli
14. Lady, be Good!: Oh, lady, be good! - Stéphane Grappelli
15. Sweet Sue, Just You - W.J. Harris
16. Thumbs Up!: Lily Belle May June - Jerry Mengo
17. Gay Divorce: The Continental - Cole Porter
18. I'm Confessin' (That I Love You) - Stéphane Grappelli
19. Blues en mineur - Django Reinhardt
20. Studio 24 - Django Reinhardt
21. Broadway Melody of 1940: Begin the Biguine - Django Reinhardt
22. Eclats de cuivre - Django Reinhardt
23. Place de Brouckere - Django Reinhardt
24. Django Rag - Django Reinhardt

Состав:
  • Django Reinhardt
  • Stéphane Grappelli
Лог проверки качества
foobar2000 2.1.1 / Dynamic Range Meter 1.1.1
log date: 2024-07-07 23:23:38

--------------------------------------------------------------------------------
Analyzed: Arthur Briggs / European Swing Giants, Vol.6: Django Reinhardt –The Ultraphone Sessions (Paris 1934-1935) and Rhythme (Brussels 1942) (1)
          Cole Porter / European Swing Giants, Vol.6: Django Reinhardt –The Ultraphone Sessions (Paris 1934-1935) and Rhythme (Brussels 1942) (2)
          Django Reinhardt / European Swing Giants, Vol.6: Django Reinhardt –The Ultraphone Sessions (Paris 1934-1935) and Rhythme (Brussels 1942) (3-8)
          Jerry Mengo / European Swing Giants, Vol.6: Django Reinhardt –The Ultraphone Sessions (Paris 1934-1935) and Rhythme (Brussels 1942) (9)
          Stéphane Grappelli / European Swing Giants, Vol.6: Django Reinhardt –The Ultraphone Sessions (Paris 1934-1935) and Rhythme (Brussels 1942) (10-23)
          W.J. Harris / European Swing Giants, Vol.6: Django Reinhardt –The Ultraphone Sessions (Paris 1934-1935) and Rhythme (Brussels 1942) (24)
--------------------------------------------------------------------------------

DR         Peak         RMS     Duration Track
--------------------------------------------------------------------------------
DR13       0.00 dB   -15.56 dB      2:51 07-Avalon
DR14       0.00 dB   -17.54 dB      2:38 17-Gay Divorce: The Continental
DR13       0.00 dB   -18.49 dB      2:48 19-Blues en mineur
DR12       0.00 dB   -14.86 dB      2:59 20-Studio 24
DR13       0.00 dB   -16.59 dB      2:53 21-Broadway Melody of 1940: Begin the Biguine
DR12      -0.24 dB   -15.35 dB      3:00 22-Eclats de cuivre
DR12       0.00 dB   -15.31 dB      2:49 23-Place de Brouckere
DR12       0.00 dB   -14.41 dB      2:32 24-Django Rag
DR12       0.00 dB   -15.46 dB      3:36 16-Thumbs Up!: Lily Belle May June
DR14       0.00 dB   -17.27 dB      2:54 01-Djangology
DR10       0.00 dB   -12.78 dB      2:33 02-Tiger Rag
DR13       0.00 dB   -16.75 dB      2:29 03-I Saw Stars
DR13       0.00 dB   -15.62 dB      2:23 04-Some of these Days
DR16       0.00 dB   -19.13 dB      3:14 05-Clouds
DR14       0.00 dB   -15.83 dB      3:12 06-Believe It, Beloved
DR13       0.00 dB   -16.81 dB      2:50 08-Smoke Rings
DR14       0.00 dB   -16.23 dB      3:19 09-Ultrafox
DR14       0.00 dB   -17.41 dB      2:52 10-Ton doux sourire
DR12       0.00 dB   -14.74 dB      3:02 11-Swanee River
DR14       0.00 dB   -16.39 dB      2:52 12-Blue Drag
DR15       0.00 dB   -16.94 dB      2:34 13-Dinah
DR15       0.00 dB   -17.81 dB      2:51 14-Lady, be Good!: Oh, lady, be good!
DR16       0.00 dB   -19.12 dB      2:53 18-I'm Confessin' (That I Love You)
DR11       0.00 dB   -13.44 dB      2:53 15-Sweet Sue, Just You
--------------------------------------------------------------------------------

Number of tracks:  24
Official DR value: DR13

Samplerate:        48000 Hz
Channels:          2
Bits per sample:   24
Bitrate:           734 kbps
Codec:             FLAC
================================================================================
23:25
76
Нет комментариев. Ваш будет первым!