Поиск

2012 Tessa Souter - Beyond The Blue {Venus VHGD-88} [DSD64 ISO]

2012 Tessa Souter - Beyond The Blue {Venus VHGD-88} [DSD64 ISO]
Стили:
Дата записи диска:
27 марта - 28 марта 2011
Место записи:
Avatar Studios, New York City, NY, USA
Дата издания диска:
5 августа 2012
Издатель (лейбл):
Номер по каталогу:
VHGD-88
Носитель:
SACD
Формат:
DSD
Тип рипа:
image
Контейнер:
ISO (*.iso)
Количество каналов:
2.0
Разрядность/ЧД:
64 (2,8 MHz/1 Bit)
Битрейт аудио:
lossless
Время звучания:
00:32:59
Наличие сканов:
только обложка

Треклист:

01. Prelude To The Sun (Beethoven's Symphony No.7, 2nd Movement) (3:55)
02. Beyond The Blue (Chopin's Prelude In E Minor, Opus 28, No.4) (6:01)
03. The Lamp Is Low (Ravel's Pavane. Adapted By Peter De Rose & Bert Shefter) (6:42)
04. Chiaroscuro (Tomaso Albinoni's Adagio In G Minor) (5:31)
05. Dance With Me (Borodin's Polovetsian Dances) (5:04)
06. Noa's Dream (Schubert's Serenade) (4:44)
07. En Aranjuez Con Tu Amor (Rodrigo's Concierto De Aranjuez) (7:08)
08. My Reverie (Debussy's Reverie. Lyric: Larry Clinton) (4:37)
09. Sunrise (Brahms' Symphony No.3, 3rd Movement) (4:45)
10. Baubles Bangles And Beads (Borodin's String Quartet In D, No.2, 2nd Movement. Adapted By Robert Wright & George Forrest) (4:22)
11. The Darkness Of Your Eyes (Faure's Pavane) (5:08)
12. Brand New Day (Faure's Elegy) (5:26)

Состав:
  • Tessa Souter — vocals
  • Steve Kuhn – piano
  • David Finck — bass
  • Billy Drummond — drums
  • Joe Locke — vibraphon
  • Joel Frahm – saxophones
  • Gary Versace – accordion
Лог проверки качества
foobar2000 1.6.4 / Dynamic Range Meter 1.1.1
log date: 2021-03-02 20:17:12

--------------------------------------------------------------------------------
Analyzed: TESSA SOUTER / Beyond The Blue
--------------------------------------------------------------------------------

DR         Peak         RMS     Duration Track
--------------------------------------------------------------------------------
DR7       -3.70 dB   -12.73 dB      3:51 01-Prelude To The Sun
DR7       -4.28 dB   -13.68 dB      5:58 02-Beyond The Blue
DR7       -4.42 dB   -12.62 dB      6:38 03-The Lamp Is Low
DR8       -4.37 dB   -13.48 dB      5:28 04-Chiaroscuro
DR7       -4.06 dB   -12.97 dB      5:01 05-Dance With Me
DR7       -4.30 dB   -12.93 dB      4:40 06-Noa's Dream
DR7       -4.58 dB   -13.11 dB      7:05 07-En Aranjuez Con Tu Amor
DR8       -3.82 dB   -13.21 dB      4:34 08-My Reverie
DR7       -4.41 dB   -13.00 dB      4:41 09-Sunrise
DR7       -4.41 dB   -13.19 dB      4:19 10-Baubles, Bangles And Beads
DR8       -3.88 dB   -12.96 dB      5:04 11-The Darkness Of Your Eyes
DR8       -4.03 dB   -13.04 dB      5:26 12-Brand New Day
--------------------------------------------------------------------------------

Number of tracks:  12
Official DR value: DR7

Samplerate:        2822400 Hz / PCM Samplerate: 352800 Hz
Channels:          2
Bits per sample:   1
Bitrate:           5645 kbps
Codec:             DSD64
================================================================================
По всем вопросам пишите личное сообщение пользователю M0p94ok.
20:28
271
Нет комментариев. Ваш будет первым!