Поиск

2010 Brian Bromberg - Bromberg Plays Hendrix (2020) {Artistry Music} [24-96]

2010 Brian Bromberg - Bromberg Plays Hendrix (2020) {Artistry Music} [24-96]
Дата записи диска:
1 декабря 2009 - 1 марта 2010
Место записи:
B² Studios, Los Angeles, USA
Дата издания диска:
27 июля 2010
Дата переиздания диска:
18 сентября 2020
Носитель:
WEB
Формат:
PCM
Тип рипа:
tracks
Контейнер:
FLAC (*.flac)
Количество каналов:
2.0
Разрядность/ЧД:
24/96
Битрейт аудио:
lossless
Время звучания:
00:56:28
Наличие сканов:
только обложка

Треклист:

01 - Fire 04:36
02 - Manic Depression 03:52
03 - Freedom 04:47
04 - The Wind Cries Mary 04:16
05 - All Along the Watchtower 04:41
06 - Foxey Lady 04:48
07 - Hey Joe 06:28
08 - Crosstown Traffic 03:43
09 - Spanish Castle Magic 05:39
10 - Purple Haze 06:58
11 - Jimi (Bonus Track) 06:40

Состав:
  • Brian Bromberg    5-string Bass, Arranger, Bass, Bass (Acoustic), Bass (Electric), Bass (Upright), Electric Upright Bass, Engineer, Fretless Bass, Mastering, Mixing, Piccolo Bass, Producer, Tenor Bass, Vocals
  • Vinnie Colaiuta    Drums
  • Tom McCauley    Bass Engineer, Drum Engineering, Mastering, Mixing, Vocals
  • Denny Stilwell    Executive Producer
  • Bruce Stone    Vocals
  • Gretchen Valade    Executive Producer
Доп. инфо:

На альбоме Bromberg Plays Hendrix басист Брайан Бромберг вообще не использует электрогитару, но это трудно заметить. Воздать должное одному из самых изобретательных гитаристов мира можно, только сделав что-то совершенно отличное от ожидаемого. Бромберг справляется с этим как на акустической, так и на электрической бас-гитаре пикколо. Будь то звуковые взрывы, такие как «Fire» и «Purple Haze», или меланхолия «The Wind Cries Mary», Бромберг и барабанщик Винни Колайута делают это с такими достойными внимания усилиями, которые заслуживают многократного прослушивания.

Лог проверки качества
foobar2000 1.4.3 / Dynamic Range Meter 1.1.1
log date: 2021-07-15 17:13:08

--------------------------------------------------------------------------------
Analyzed: Brian Bromberg / Bromberg Plays Hendrix (2020 Remix and Remastered)
--------------------------------------------------------------------------------

DR         Peak         RMS     Duration Track
--------------------------------------------------------------------------------
DR5       -1.00 dB    -7.55 dB      4:36 01-Fire (2020 Remix and Remastered)
DR6       -1.00 dB    -8.05 dB      3:52 02-Manic Depression (2020 Remix and Remastered)
DR5       -1.00 dB    -7.24 dB      4:48 03-Freedom (2020 Remix and Remastered)
DR7       -1.00 dB    -9.99 dB      4:17 04-The Wind Cries Mary (2020 Remix and Remastered)
DR6       -1.00 dB    -8.08 dB      4:42 05-All Along the Watchtower (2020 Remix and Remastered)
DR5       -1.00 dB    -7.57 dB      4:48 06-Foxey Lady (2020 Remix and Remastered)
DR6       -1.00 dB    -9.54 dB      6:28 07-Hey Joe (2020 Remix and Remastered)
DR5       -1.00 dB    -7.01 dB      3:44 08-Crosstown Traffic (2020 Remix and Remastered)
DR5       -1.00 dB    -7.42 dB      5:39 09-Spanish Castle Magic (2020 Remix and Remastered)
DR6       -1.00 dB    -7.93 dB      6:58 10-Purple Haze (2020 Remix and Remastered)
DR5       -1.00 dB    -7.60 dB      6:40 11-Jimi (Bonus Track)
--------------------------------------------------------------------------------

Number of tracks:  11
Official DR value: DR6

Samplerate:        96000 Hz
Channels:          2
Bits per sample:   24
Bitrate:           2992 kbps
Codec:             FLAC
================================================================================
По всем вопросам пишите личное сообщение пользователю M0p94ok.
07:52
255
Нет комментариев. Ваш будет первым!