Вы используете незарегистрированную версию компонента "Вкладки"!

Поиск

2012 Samuel Yirga - Guzo {Real World} [24-48]

2012 Samuel Yirga - Guzo {Real World} [24-48]
Битрейт аудио:
lossless
Доп. инфо:

Формат записи/Источник записи: [TR24][OF]
Наличие водяных знаков: Нет
Год издания/переиздания диска: 2012
Издатель (лейбл): Real World / Society of Sound / Bowers & Wilkins
Продолжительность: 01:03:09
Наличие сканов в содержимом раздачи: Да (сканы)
Источник (релизер): Bowers & Wilkins

Контейнер: FLAC (*.flac)
Тип рипа: tracks
Разрядность: 24/48
Формат: PCM
Количество каналов: 2.0

Лог проверки качества
foobar2000 1.1.15 / Dynamic Range Meter 1.1.1
log date: 2020-09-14 20:21:43

--------------------------------------------------------------------------------
Analyzed: Samuel Yirga / Guzo
--------------------------------------------------------------------------------

DR         Peak         RMS     Duration Track
--------------------------------------------------------------------------------
DR9       -0.10 dB   -10.71 dB      5:12 01-Abet Abet (Punt Mix)
DR9       -0.10 dB   -12.85 dB      5:57 02-Twista (Tinish Mix)
DR9       -0.10 dB   -10.70 dB      6:59 03-Firma Ena Wereket
DR12      -0.10 dB   -16.24 dB      8:28 04-Ye Bati Koyita
DR9       -0.10 dB   -13.25 dB      0:56 05-Nou Se Soleil
DR7       -0.10 dB    -8.89 dB      5:27 06-I Am The Black Gold Of The Sun
DR10      -0.10 dB   -12.68 dB      4:27 07-Dance With The Legend
DR8       -0.10 dB    -9.81 dB      5:46 08-My Head
DR14      -0.01 dB   -19.23 dB      8:29 09-Drop Me There
DR10      -0.10 dB   -11.33 dB      4:45 10-The Blues Of Wollow (Dessye Mix)
DR8       -0.10 dB    -9.81 dB      6:44 11-African Diaspora
--------------------------------------------------------------------------------

Number of tracks:  11
Official DR value: DR10

Samplerate:        48000 Hz
Channels:          2
Bits per sample:   24
Bitrate:           1782 kbps
Codec:             FLAC
================================================================================
Any questions - support@pro-jazz.com. Есть вопросы - support@pro-jazz.com
22:08
290
Нет комментариев. Ваш будет первым!