Вы используете незарегистрированную версию компонента "Вкладки"!

Поиск

1961 Sylvia Telles - U.S.A (2018 Remastered) {RevOla} [24-44,1]

1961 Sylvia Telles - U.S.A (2018 Remastered) {RevOla} [24-44,1]
Стили:
Издатель (лейбл):
Носитель:
WEB
Формат:
PCM
Тип рипа:
tracks+.cue
Количество каналов:
2.0
Разрядность/ЧД:
24/44,1
Битрейт аудио:
lossless
Время звучания:
00:34:48
Наличие сканов:
web
Страна-производитель диска (релиза):
USA
Релизёр (источник):
M0p94ok
Лог проверки качества
foobar2000 1.5.5 / Dynamic Range Meter 1.1.1
log date: 2020-10-06 19:39:06

--------------------------------------------------------------------------------
Analyzed: Sylvia Telles / Sylvia Telles: U.S.A
--------------------------------------------------------------------------------

DR         Peak         RMS     Duration Track
--------------------------------------------------------------------------------
DR9        0.00 dB   -13.12 dB      3:50 01-Sabado Em Copacabana (remastered)
DR6        0.00 dB    -9.45 dB      4:13 02-Meu Mundo E Voce (remastered)
DR9        0.00 dB   -13.26 dB      2:28 03-Estrada Do Sol (remastered)
DR5        0.00 dB    -7.14 dB      2:34 04-Tra La La La La The Happy One (remastered)
DR8        0.00 dB   -11.60 dB      2:37 05-Meu Amanha (remastered)
DR7        0.00 dB   -10.26 dB      3:10 06-Cancao Que Morre No Ar (remastered)
DR8        0.00 dB   -11.47 dB      3:18 07-Manha De Carnaval (remastered)
DR7        0.00 dB   -10.65 dB      4:26 08-Amor Sem Adeus (remastered)
DR7        0.00 dB   -10.38 dB      3:01 09-Imaginacao/Among My Souvenirs (remastered)
DR1        0.00 dB    -3.98 dB      2:34 10-Dindi (remastered)
DR4        0.00 dB    -5.06 dB      2:41 11-Foi a Noite (remastered)
--------------------------------------------------------------------------------

Number of tracks:  11
Official DR value: DR7

Samplerate:        44100 Hz
Channels:          2
Bits per sample:   24
Bitrate:           752 kbps
Codec:             FLAC
================================================================================
Any questions - support@pro-jazz.com. Есть вопросы - support@pro-jazz.com
20:46
225
Нет комментариев. Ваш будет первым!