Поиск

2012 John Di Martino Romantic Jazz Trio - Forbidden Love ~ Tribute to Madonna {Venus} [DSD64 ISO]

2012 John Di Martino Romantic Jazz Trio - Forbidden Love ~ Tribute to Madonna {Venus} [DSD64 ISO]
Стили:
Дата записи диска:
10 мая - 13 мая 2012
Место записи:
Tedesco Studios, Paramus, NJ, USA
Дата издания диска:
15 августа 2012
Издатель (лейбл):
Номер по каталогу:
VHGD-323
Носитель:
SACD
Формат:
DSD
Тип рипа:
image
Контейнер:
ISO (*.iso)
Количество каналов:
2.0
Разрядность/ЧД:
64 (2,8 MHz/1 Bit)
Битрейт аудио:
lossless
Время звучания:
00:59:24
Наличие сканов:
только обложка

01. La Isla Bonita《 Bruce Gaitsch, Patrick Leonard, Madonna 》
02. Forbidden Love《 Madonna, Stuart Price 》
03. Frozen《 Patrick Leonard, Madonna 》
04. Deeper And Deeper《 Madonna, Pettibone, Shimkin 》
05. Get Together《 Peer Astrom, Anders “Bag” Bagge, Madonna, Stewart Price 》
06. Take A Bow《 Babyface, Madonna 》
07. Don’t Cry For Me Argentina《 Tim Rice, Andrew Lloyd Webber 》
08. Secret《 Dallas Austin, Madonna 》
09. Human Nature《 Milo Deering, Dave Hall, Madonna, Kevin McKenzie 》
10. Cherish《 Madonna, Patrick Leonard 》
11. Like A Virgin《 Tom Kelly, Billy Steinberg 》
12. Borderline《 Reggie Lucas 》
13. You’ll See《 David Foster, Madonna 》
14. Madonna’s Prayer《 John Di Martino 》

Состав:
  • John Di Martino — piano
  • Boris Kozlov — bass
  • Mike Clark — drums
Лог проверки качества
foobar2000 1.6.8 / Dynamic Range Meter 1.1.1
log date: 2021-12-26 10:16:23
--------------------------------------------------------------------------------
Analyzed: JOHN DI MARTINO'S ROMANTIC JAZZ TRIO / Forbidden Love
--------------------------------------------------------------------------------
DR         Peak         RMS     Duration Track
--------------------------------------------------------------------------------
DR7       -3.65 dB   -13.27 dB      3:02 01-La Isla Bonita
DR7       -4.06 dB   -13.27 dB      3:48 02-Forbidden Love
DR6       -4.63 dB   -13.15 dB      4:11 03-Frozen
DR7       -4.93 dB   -12.99 dB      5:29 04-Deeper And Deeper
DR7       -4.61 dB   -13.19 dB      5:05 05-Get Together
DR7       -4.24 dB   -12.88 dB      3:41 06-Take A Bow
DR6       -4.46 dB   -12.67 dB      3:52 07-Don't Cry For Me Argentina
DR6       -4.31 dB   -12.43 dB      4:17 08-Secret
DR7       -3.75 dB   -13.23 dB      3:50 09-Human Nature
DR7       -3.82 dB   -13.08 dB      4:05 10-Cherish
DR6       -4.06 dB   -11.91 dB      4:13 11-Like A Virgin
DR7       -4.11 dB   -12.67 dB      4:45 12-Borderline
DR6       -4.12 dB   -12.81 dB      4:47 13-You'll See
DR7       -4.68 dB   -13.16 dB      4:21 14-Madonna's Prayer
--------------------------------------------------------------------------------
Number of tracks:  14
Official DR value: DR7
Samplerate:        2822400 Hz / PCM Samplerate: 88200 Hz
Channels:          2
Bits per sample:   1
Bitrate:           5645 kbps
Codec:             DSD64
================================================================================
Приватный:
Нет (DHT включён)
Размер:
2.39 Гб (2,568,073,915 байт) » файлов: 5
Участники:
0 раздают, 1 качают (1 участников всего)
Внешние участники:
--- [ Обновить ]
20:12
357
Нет комментариев. Ваш будет первым!