Поиск

2007 Harold Mabern Trio - Somewhere Over The Rainbow (2018) {Venus} [DSD64 ISO]

2007 Harold Mabern Trio - Somewhere Over The Rainbow (2018) {Venus} [DSD64 ISO]
Стили:
Дата записи диска:
11 ноября 2005
Место записи:
The Studio, New York City, NY, USA
Издатель (лейбл):
Номер по каталогу:
VHGD-300
Носитель:
SACD
Формат:
DSD
Тип рипа:
image
Контейнер:
ISO (*.iso)
Количество каналов:
2.0
Разрядность/ЧД:
64 (2,8 MHz/1 Bit)
Битрейт аудио:
lossless
Время звучания:
00:55:12
Наличие сканов:
только обложка

01. Somewhere Over the Rainbow  05:46
02. A Sleeping Bee  07:48
03. Blues in the Night  06:35
04. Out of This World  06:28
05. Savanna  04:15
06. Hooray for Love  03:01
07. Stormy Weather  04:16
08. I've Got the World on a String  04:43
09. The Man That Got Away  07:08
10. This Time the Dream's on Me  05:12

Состав:
  • Harold Mabern — piano
  • Dwayne Burno — bass
  • Willie Jones Ⅲ — drums
  • Katherine Miller — engineer
Лог проверки качества
foobar2000 1.6.7 / Dynamic Range Meter 1.1.1
log date: 2021-11-22 18:46:23
--------------------------------------------------------------------------------
Analyzed: HAROLD MABERN TRIO / Somewhere Over The Rainbow
--------------------------------------------------------------------------------
DR         Peak         RMS     Duration Track
--------------------------------------------------------------------------------
DR6       -4.84 dB   -12.99 dB      5:46 01-Somewhere Over The Rainbow
DR7       -4.91 dB   -13.78 dB      7:48 02-A Sleeping Bee
DR7       -5.00 dB   -14.00 dB      6:35 03-Blues In The Night
DR6       -4.64 dB   -11.98 dB      6:28 04-Out Of This World
DR6       -4.72 dB   -12.63 dB      4:15 05-Savanna
DR9       -5.11 dB   -15.22 dB      3:01 06-Hooray For Love
DR8       -4.96 dB   -15.19 dB      4:16 07-Stormy Weather
DR8       -4.95 dB   -15.05 dB      4:43 08-I've Got The World On A String
DR7       -4.97 dB   -14.66 dB      7:08 09-The Man That Got Away
DR7       -4.84 dB   -13.77 dB      5:12 10-This Time The Dream's On Me
--------------------------------------------------------------------------------
Number of tracks:  10
Official DR value: DR7
Samplerate:        2822400 Hz / PCM Samplerate: 88200 Hz
Channels:          2
Bits per sample:   1
Bitrate:           5645 kbps
Codec:             DSD64
================================================================================
Приватный:
Нет (DHT включён)
Размер:
2.22 Гб (2,386,664,637 байт) » файлов: 5
Участники:
0 раздают, 1 качают (1 участников всего)
Внешние участники:
--- [ Обновить ]
15:54
390
Нет комментариев. Ваш будет первым!