Поиск

2012 Dezron Douglas Trio - Walkin' My Baby Back Home (2018) {Venus VHGD-308} [DSD64 ISO]

2012 Dezron Douglas Trio - Walkin' My Baby Back Home (2018) {Venus VHGD-308} [DSD64 ISO]
Стили:
Дата записи диска:
30 марта - 31 марта 2011
Место записи:
Avatar Studios, New York City, NY, USA
Дата издания диска:
19 декабря 2012
Издатель (лейбл):
Номер по каталогу:
VHGD-308
Носитель:
SACD
Формат:
DSD
Тип рипа:
image
Контейнер:
ISO (*.iso)
Количество каналов:
2.0
Разрядность/ЧД:
64 (2,8 MHz/1 Bit)
Битрейт аудио:
lossless
Время звучания:
00:48:28
Наличие сканов:
да

 

1. Walkin' My Baby Back Home    4:52
2. Stay On It    5:22
3. Minority    4:39
4. Beautiful Moons Ago    6:16
5. You're Looking At Me    4:23
6. I Can't See For Lookin'    5:00
7. Darling Jes Vous Aime Beaucoup    4:48
8. Portrait Of Jennie    7:36
9. We´ll Be Together Again    5:11

Состав:
  • Acoustic Bass – Dezron Douglas
  • Drums – Lewis Nash
  • Engineer – Katherine Miller
  • Piano – Cyrus Chestnut
  • Producer, Mixed By, Mastered By – Tetsuo Hara
Лог проверки качества
foobar2000 1.6.4 / Dynamic Range Meter 1.1.1
log date: 2021-07-11 23:09:30

--------------------------------------------------------------------------------
Analyzed: DEZRON DOUGLAS TRIO / Walkin' My Baby Back Home
--------------------------------------------------------------------------------

DR         Peak         RMS     Duration Track
--------------------------------------------------------------------------------
DR6       -6.08 dB   -13.43 dB      4:55 01-Walkin' My Baby Back Home
DR8       -5.79 dB   -15.03 dB      5:24 02-Stay On It
DR7       -5.90 dB   -15.15 dB      4:42 03-Minority
DR7       -6.14 dB   -14.86 dB      6:18 04-Beautiful Moons Ago
DR6       -6.46 dB   -14.40 dB      4:26 05-You're Looking At Me
DR7       -6.20 dB   -14.34 dB      5:03 06-I Can't See For Lookin'
DR7       -5.03 dB   -17.06 dB      4:51 07-Darling Jes Vous Aime Beaucoup
DR6       -6.96 dB   -15.11 dB      7:39 08-Portrait Of Jennie
DR7       -6.14 dB   -14.97 dB      5:11 09-We'll Be Together Again
--------------------------------------------------------------------------------

Number of tracks:  9
Official DR value: DR7

Samplerate:        2822400 Hz / PCM Samplerate: 88200 Hz
Channels:          2
Bits per sample:   1
Bitrate:           5645 kbps
Codec:             DSD64
================================================================================
Приватный:
Нет (DHT включён)
Размер:
1.95 Гб (2,099,052,221 байт) » файлов: 5
Участники:
0 раздают, 0 качают (0 участников всего)
Внешние участники:
7 раздают, 2 качают (9 участников всего) [ Обновить ]
11:15
478
Нет комментариев. Ваш будет первым!