Поиск

2008 Tessa Souter - Nights Of Key Largo (2016) {Venus VHGD-187} [DSD64 ISO]

2008 Tessa Souter - Nights Of Key Largo (2016) {Venus VHGD-187} [DSD64 ISO]
Дата записи диска:
13 августа - 15 августа 2008
Место записи:
Avatar Studios, New York City, NY, USA
Дата издания диска:
7 июля 2008
Издатель (лейбл):
Номер по каталогу:
VHGD-187
Носитель:
SACD
Формат:
DSD
Тип рипа:
image
Контейнер:
ISO (*.iso)
Количество каналов:
2.0
Разрядность/ЧД:
64 (2,8 MHz/1 Bit)
Битрейт аудио:
lossless
Время звучания:
01:03:11
Наличие сканов:
да

Треклист:

01. The Island  06:01
02. Close Enough for Love  07:18
03. Moondance  04:20
04. So Many Stars  04:26
05. The Look of Love  04:06
06. You Only Live Twice  04:52
07. Key Largo  04:02
08. Slow Hot Wind  04:41
09. Moon and Sand  04:30
10. I'm Glad There Is You  05:21
11. All or Nothing At All  04:55
12. Morning of the Carnival  04:47
13. Imagine  04:41

Состав:
  • Todd Barkan    Producer
  • Billy Drummond    Drums
  • Joel Frahm    Sax (Soprano), Sax (Tenor)
  • Tetsuo Hara    Mastering, Mixing, Producer
  • Shuji Kitamura    Mastering, Mixing
  • Jay Leonhart    Bass
  • Romero Lubambo    Guitar
  • Katherine Miller    Engineer
  • Tessa Souter    Vocals
  • Kenny Werner    Piano
Лог проверки качества
foobar2000 1.6.4 / Dynamic Range Meter 1.1.1
log date: 2021-07-11 23:11:56

--------------------------------------------------------------------------------
Analyzed: TESSA SOUTER / Nights Of Key Largo
--------------------------------------------------------------------------------

DR         Peak         RMS     Duration Track
--------------------------------------------------------------------------------
DR6       -4.54 dB   -11.86 dB      5:57 01-The Island
DR8       -5.07 dB   -15.26 dB      7:14 02-Close Enough For Love
DR9       -4.79 dB   -15.09 dB      4:16 03-Moondance
DR9       -4.87 dB   -15.61 dB      4:22 04-So Many Stars
DR11      -5.30 dB   -19.47 dB      4:02 05-The Look Of Love
DR9       -4.61 dB   -16.45 dB      4:48 06-You Only Live Twice
DR7       -4.47 dB   -13.61 dB      3:58 07-Key Largo
DR9       -4.86 dB   -15.25 dB      4:37 08-Slow Hot Wind
DR6       -4.95 dB   -12.57 dB      4:26 09-Moon And Sand
DR9       -4.81 dB   -16.34 dB      5:17 10-I'm Glad There Is You
DR8       -4.76 dB   -15.00 dB      4:51 11-All Or Nothing At All
DR10      -4.96 dB   -17.73 dB      4:43 12-Morning Of The Carnival
DR6       -4.89 dB   -12.77 dB      4:41 13-Imagine
--------------------------------------------------------------------------------

Number of tracks:  13
Official DR value: DR8

Samplerate:        2822400 Hz / PCM Samplerate: 88200 Hz
Channels:          2
Bits per sample:   1
Bitrate:           5645 kbps
Codec:             DSD64
================================================================================
По всем вопросам пишите личное сообщение пользователю M0p94ok.
21:42
289
Нет комментариев. Ваш будет первым!