Поиск

2012 Arthur Lyman - Eight Classic Albums {Real Gone Jazz RGJCD310} [3CD]

2012 Arthur Lyman - Eight Classic Albums {Real Gone Jazz RGJCD310} [3CD]

Жанр: Easy Listening, Smooth Jazz, Pacific
Носитель: CD
Страна-производитель диска (релиза): Великобритания
Год издания: 2012
Издатель (лейбл): Real Gone Jazz
Номер по каталогу: RGJCD310
Аудиокодек: FLAC (*.flac)
Тип рипа: tracks+.cue
Битрейт аудио: lossless
Продолжительность: 04:50:58
Источник: improbab
Наличие сканов в содержимом раздачи: нет

 
CD1 {77:05}

Leis of Jazz (1957)
01. Leis of Jazz (2:14)
02. Trigger Fantasy (3:27)
03. The Lady Is a Tramp (5:00)
04. Body and Soul (4:32)
05. Gypsy in My Soul (2:17)
06. Lullaby of the Leaves (3:04)
07. On the Street Where You Live (3:22)
08. My Funny Valentine (3:39)
09. The Way You Look Tonight (3:14)
10. How High the Moon (5:33)
11. Lullaby of Birdland (2:52)
12. Aloha Oe (3:48)
Taboo (1958)
13. Taboo (4:42)
14. Love Song of Kalua (2:12)
15. Ringo Oiwake (3:11)
16. Sea Breeze (3:22)
17. Misirlou (2:56)
18. China Clipper (2:20)
19. Sim Sim (2:29)
20. Katsumi Love Theme (3:03)
21. Caravan (2:31)
22. Akaka Falls (2:25)
23. Dahil Sayo (2:27)
24. Hilo March (2:25)

 
CD2 {72:17}

Hawaiian Sunset (1958)
01. Hawaiian War Chant (3:42)
02. Sweet Leilani (1:56)
03. Imi Au Ia Oe (King's Serenade) (2:20)
04. My Tane (2:15)
05. Whispering Reef Lullaby (2:29)
06. Song of the Islands (Na Lei O Hawaii) (2:43)
07. Hilawe (1:10)
08. Isle of Golden Dreams (2:41)
09. Mapuana (2:06)
10. Waipio (2:41)
11. Kawohikukupulani (2:26)
12. Ke Kali Nei Au (3:00)
13. Harbor Lights (3:15)
Bwana A (1958)
14. Bwana A (4:35)
15. South Pacific Moonlight (4:10)
16. Moon over a Ruined Castle (3:22)
17. Waikiki Serenade (2:51)
18. La Paloma (2:30)
19. Otome San (2:44)
20. Canton Rose (2:14)
21. Blue Sands (3:33)
22. Malaguena (3:57)
23. Vera Cruz (3:04)
24. Pua Carnation (2:25)
25. Colonel Bogey's March (4:08)

 
CD3 {75:39}

Legend of Pele (1958)
01. Pele (3:19)
02. Fire Down Below (2:29)
03. Ye Lai Sian (4:12)
04. Hana Pele (3:13)
05. Hana Maui (3:56)
06. Cumana (1:54)
07. Scheherezade (5:03)
08. Cubana Chant (2:40)
09. Magic Island (3:49)
10. Tropical (Kinkajou) (3:09)
11. Fascination (4:34)
12. 76 Trombones (2:17)
Bahia (1959)
13. Bahia (3:07)
14. Jungle Jalopy (2:39)
15. Legend of the Rain (4:04)
16. Bamboo (2:56)
17. Return to Me (1:58)
18. Caribbean Nights (2:57)
19. Quiet Village (3:43)
20. Tropical (2:58)
21. Happy Voodoo (2:52)
22. Busy Port (2:46)
23. Beyond the Reef (2:23)
24. Maui Chimes (2:41)

Лог создания рипа
CD1
X Lossless Decoder version 20161007 (149.3)

XLD extraction logfile from 2017-03-08 00:13:42 +0100

Arthur Lyman / Leis Of Jazz + Taboo

Used drive : MATSHITA BD-MLT UJ272 (revision 1.01)
Media type : Pressed CD

Ripper mode             : XLD Secure Ripper
Disable audio cache     : OK for the drive with a cache less than 1375KiB
Make use of C2 pointers : NO
Read offset correction  : 103
Max retry count         : 20
Gap status              : Analyzed, Appended (except HTOA)

TOC of the extracted CD
     Track |   Start  |  Length  | Start sector | End sector
    ---------------------------------------------------------
        1  | 00:00:00 | 02:13:44 |         0    |    10018
        2  | 02:13:44 | 03:26:49 |     10019    |    25517
        3  | 05:40:18 | 04:59:57 |     25518    |    47999
        4  | 10:40:00 | 04:32:10 |     48000    |    68409
        5  | 15:12:10 | 02:16:62 |     68410    |    78671
        6  | 17:28:72 | 03:03:73 |     78672    |    92469
        7  | 20:32:70 | 03:21:70 |     92470    |   107614
        8  | 23:54:65 | 03:39:14 |    107615    |   124053
        9  | 27:34:04 | 03:13:48 |    124054    |   138576
       10  | 30:47:52 | 05:32:43 |    138577    |   163519
       11  | 36:20:20 | 02:51:47 |    163520    |   176391
       12  | 39:11:67 | 03:48:31 |    176392    |   193522
       13  | 43:00:23 | 04:41:48 |    193523    |   214645
       14  | 47:41:71 | 02:11:66 |    214646    |   224536
       15  | 49:53:62 | 03:11:35 |    224537    |   238896
       16  | 53:05:22 | 03:22:01 |    238897    |   254047
       17  | 56:27:23 | 02:55:49 |    254048    |   267221
       18  | 59:22:72 | 02:20:04 |    267222    |   277725
       19  | 61:43:01 | 02:29:07 |    277726    |   288907
       20  | 64:12:08 | 03:03:35 |    288908    |   302667
       21  | 67:15:43 | 02:30:54 |    302668    |   313971
       22  | 69:46:22 | 02:25:26 |    313972    |   324872
       23  | 72:11:48 | 02:27:32 |    324873    |   335929
       24  | 74:39:05 | 02:24:47 |    335930    |   346776

AccurateRip Summary (DiscID: 0046730e-04bb6861-6c120f18)
    Track 01 : OK (v2, confidence 16/16)
    Track 02 : OK (v2, confidence 16/16)
    Track 03 : OK (v2, confidence 16/16)
    Track 04 : OK (v2, confidence 16/16)
    Track 05 : OK (v2, confidence 16/16)
    Track 06 : OK (v2, confidence 16/16)
    Track 07 : OK (v2, confidence 14/14)
    Track 08 : OK (v2, confidence 16/16)
    Track 09 : OK (v2, confidence 15/15)
    Track 10 : OK (v2, confidence 16/16)
    Track 11 : OK (v2, confidence 16/16)
    Track 12 : OK (v2, confidence 15/15)
    Track 13 : OK (v2, confidence 16/16)
    Track 14 : OK (v2, confidence 15/15)
    Track 15 : OK (v2, confidence 16/16)
    Track 16 : OK (v2, confidence 16/16)
    Track 17 : OK (v2, confidence 16/16)
    Track 18 : OK (v2, confidence 16/16)
    Track 19 : OK (v2, confidence 16/16)
    Track 20 : OK (v2, confidence 15/15)
    Track 21 : OK (v2, confidence 16/16)
    Track 22 : OK (v2, confidence 16/16)
    Track 23 : OK (v2, confidence 16/16)
    Track 24 : OK (v2, confidence 16/16)
        ->All tracks accurately ripped.

All Tracks
    Album gain               : -0.76 dB
    Peak                     : 0.999969
    Statistics
        Read error                           : 0
        Jitter error (maybe fixed)           : 0
        Retry sector count                   : 0
        Damaged sector count                 : 0

Track 01
    Filename : /Volumes/osec/XLDs/Arthur Lyman - Leis Of Jazz + Taboo (Unknown Year) [FLAC]/01 - Arthur Lyman - Leis Of Jazz.flac
               /Volumes/osec/XLDs/Arthur Lyman - Leis Of Jazz + Taboo (Unknown Year) [MP3 V0]/01 - Arthur Lyman - Leis Of Jazz.mp3
               /Volumes/osec/XLDs/Arthur Lyman - Leis Of Jazz + Taboo (Unknown Year) [MP3 320]/01 - Arthur Lyman - Leis Of Jazz.mp3
    Pre-gap length : 00:02:00

    Track gain               : -1.40 dB
    Peak                     : 0.874298
    CRC32 hash (test run)    : 863B9A4D
    CRC32 hash               : 863B9A4D
    CRC32 hash (skip zero)   : 06BCA2BB
    AccurateRip v1 signature : DE39F16C
    AccurateRip v2 signature : C3FC4D12
        ->Accurately ripped (v2, confidence 16/16)
    Statistics
        Read error                           : 0
        Jitter error (maybe fixed)           : 0
        Retry sector count                   : 0
        Damaged sector count                 : 0

Track 02
    Filename : /Volumes/osec/XLDs/Arthur Lyman - Leis Of Jazz + Taboo (Unknown Year) [FLAC]/02 - Arthur Lyman - Trigger Fantasy.flac
               /Volumes/osec/XLDs/Arthur Lyman - Leis Of Jazz + Taboo (Unknown Year) [MP3 V0]/02 - Arthur Lyman - Trigger Fantasy.mp3
               /Volumes/osec/XLDs/Arthur Lyman - Leis Of Jazz + Taboo (Unknown Year) [MP3 320]/02 - Arthur Lyman - Trigger Fantasy.mp3

    Track gain               : 1.03 dB
    Peak                     : 0.880005
    CRC32 hash (test run)    : DA8F3E98
    CRC32 hash               : DA8F3E98
    CRC32 hash (skip zero)   : 51B5ECE6
    AccurateRip v1 signature : 3A1CA255
    AccurateRip v2 signature : 41F7C360
        ->Accurately ripped (v2, confidence 16/16)
    Statistics
        Read error                           : 0
        Jitter error (maybe fixed)           : 0
        Retry sector count                   : 0
        Damaged sector count                 : 0

Track 03
    Filename : /Volumes/osec/XLDs/Arthur Lyman - Leis Of Jazz + Taboo (Unknown Year) [FLAC]/03 - Arthur Lyman - The Lady Is A Tramp.flac
               /Volumes/osec/XLDs/Arthur Lyman - Leis Of Jazz + Taboo (Unknown Year) [MP3 V0]/03 - Arthur Lyman - The Lady Is A Tramp.mp3
               /Volumes/osec/XLDs/Arthur Lyman - Leis Of Jazz + Taboo (Unknown Year) [MP3 320]/03 - Arthur Lyman - The Lady Is A Tramp.mp3

    Track gain               : -1.97 dB
    Peak                     : 0.967133
    CRC32 hash (test run)    : 1FEB7934
    CRC32 hash               : 1FEB7934
    CRC32 hash (skip zero)   : EE2186D4
    AccurateRip v1 signature : C5F520BB
    AccurateRip v2 signature : 85A7FC53
        ->Accurately ripped (v2, confidence 16/16)
    Statistics
        Read error                           : 0
        Jitter error (maybe fixed)           : 0
        Retry sector count                   : 0
        Damaged sector count                 : 0

Track 04
    Filename : /Volumes/osec/XLDs/Arthur Lyman - Leis Of Jazz + Taboo (Unknown Year) [FLAC]/04 - Arthur Lyman - Body And Soul.flac
               /Volumes/osec/XLDs/Arthur Lyman - Leis Of Jazz + Taboo (Unknown Year) [MP3 V0]/04 - Arthur Lyman - Body And Soul.mp3
               /Volumes/osec/XLDs/Arthur Lyman - Leis Of Jazz + Taboo (Unknown Year) [MP3 320]/04 - Arthur Lyman - Body And Soul.mp3

    Track gain               : -0.42 dB
    Peak                     : 0.971008
    CRC32 hash (test run)    : 52D04757
    CRC32 hash               : 52D04757
    CRC32 hash (skip zero)   : 3749F02C
    AccurateRip v1 signature : B01C90F5
    AccurateRip v2 signature : 62C55086
        ->Accurately ripped (v2, confidence 16/16)
    Statistics
        Read error                           : 0
        Jitter error (maybe fixed)           : 0
        Retry sector count                   : 0
        Damaged sector count                 : 0

Track 05
    Filename : /Volumes/osec/XLDs/Arthur Lyman - Leis Of Jazz + Taboo (Unknown Year) [FLAC]/05 - Arthur Lyman - Gypsy In My Soul.flac
               /Volumes/osec/XLDs/Arthur Lyman - Leis Of Jazz + Taboo (Unknown Year) [MP3 V0]/05 - Arthur Lyman - Gypsy In My Soul.mp3
               /Volumes/osec/XLDs/Arthur Lyman - Leis Of Jazz + Taboo (Unknown Year) [MP3 320]/05 - Arthur Lyman - Gypsy In My Soul.mp3

    Track gain               : -1.35 dB
    Peak                     : 0.988129
    CRC32 hash (test run)    : 3663BD72
    CRC32 hash               : 3663BD72
    CRC32 hash (skip zero)   : 1BF8C482
    AccurateRip v1 signature : 5F8DA9AE
    AccurateRip v2 signature : E901DAF1
        ->Accurately ripped (v2, confidence 16/16)
    Statistics
        Read error                           : 0
        Jitter error (maybe fixed)           : 0
        Retry sector count                   : 0
        Damaged sector count                 : 0

Track 06
    Filename : /Volumes/osec/XLDs/Arthur Lyman - Leis Of Jazz + Taboo (Unknown Year) [FLAC]/06 - Arthur Lyman - Lullaby Of The Leaves.flac
               /Volumes/osec/XLDs/Arthur Lyman - Leis Of Jazz + Taboo (Unknown Year) [MP3 V0]/06 - Arthur Lyman - Lullaby Of The Leaves.mp3
               /Volumes/osec/XLDs/Arthur Lyman - Leis Of Jazz + Taboo (Unknown Year) [MP3 320]/06 - Arthur Lyman - Lullaby Of The Leaves.mp3

    Track gain               : -0.04 dB
    Peak                     : 0.999969
    CRC32 hash (test run)    : 19D5E258
    CRC32 hash               : 19D5E258
    CRC32 hash (skip zero)   : 6003E893
    AccurateRip v1 signature : C7A8329A
    AccurateRip v2 signature : 57791938
        ->Accurately ripped (v2, confidence 16/16)
    Statistics
        Read error                           : 0
        Jitter error (maybe fixed)           : 0
        Retry sector count                   : 0
        Damaged sector count                 : 0

Track 07
    Filename : /Volumes/osec/XLDs/Arthur Lyman - Leis Of Jazz + Taboo (Unknown Year) [FLAC]/07 - Arthur Lyman - On The Street Where You Live.flac
               /Volumes/osec/XLDs/Arthur Lyman - Leis Of Jazz + Taboo (Unknown Year) [MP3 V0]/07 - Arthur Lyman - On The Street Where You Live.mp3
               /Volumes/osec/XLDs/Arthur Lyman - Leis Of Jazz + Taboo (Unknown Year) [MP3 320]/07 - Arthur Lyman - On The Street Where You Live.mp3

    Track gain               : -2.09 dB
    Peak                     : 0.957916
    CRC32 hash (test run)    : 6A8A31CC
    CRC32 hash               : 6A8A31CC
    CRC32 hash (skip zero)   : 882D4CA0
    AccurateRip v1 signature : 474F8690
    AccurateRip v2 signature : 029A83CF
        ->Accurately ripped (v2, confidence 14/14)
    Statistics
        Read error                           : 0
        Jitter error (maybe fixed)           : 0
        Retry sector count                   : 0
        Damaged sector count                 : 0

Track 08
    Filename : /Volumes/osec/XLDs/Arthur Lyman - Leis Of Jazz + Taboo (Unknown Year) [FLAC]/08 - Arthur Lyman - My Funny Valentine.flac
               /Volumes/osec/XLDs/Arthur Lyman - Leis Of Jazz + Taboo (Unknown Year) [MP3 V0]/08 - Arthur Lyman - My Funny Valentine.mp3
               /Volumes/osec/XLDs/Arthur Lyman - Leis Of Jazz + Taboo (Unknown Year) [MP3 320]/08 - Arthur Lyman - My Funny Valentine.mp3

    Track gain               : -0.12 dB
    Peak                     : 0.895050
    CRC32 hash (test run)    : 313A7CE2
    CRC32 hash               : 313A7CE2
    CRC32 hash (skip zero)   : E8874819
    AccurateRip v1 signature : 0726275F
    AccurateRip v2 signature : 3E94C7BB
        ->Accurately ripped (v2, confidence 16/16)
    Statistics
        Read error                           : 0
        Jitter error (maybe fixed)           : 0
        Retry sector count                   : 0
        Damaged sector count                 : 0

Track 09
    Filename : /Volumes/osec/XLDs/Arthur Lyman - Leis Of Jazz + Taboo (Unknown Year) [FLAC]/09 - Arthur Lyman - The Way You Look Tonight.flac
               /Volumes/osec/XLDs/Arthur Lyman - Leis Of Jazz + Taboo (Unknown Year) [MP3 V0]/09 - Arthur Lyman - The Way You Look Tonight.mp3
               /Volumes/osec/XLDs/Arthur Lyman - Leis Of Jazz + Taboo (Unknown Year) [MP3 320]/09 - Arthur Lyman - The Way You Look Tonight.mp3

    Track gain               : -3.10 dB
    Peak                     : 0.961761
    CRC32 hash (test run)    : C469DC6E
    CRC32 hash               : C469DC6E
    CRC32 hash (skip zero)   : 24639B98
    AccurateRip v1 signature : EE0D7CD8
    AccurateRip v2 signature : 3F3EA64C
        ->Accurately ripped (v2, confidence 15/15)
    Statistics
        Read error                           : 0
        Jitter error (maybe fixed)           : 0
        Retry sector count                   : 0
        Damaged sector count                 : 0

Track 10
    Filename : /Volumes/osec/XLDs/Arthur Lyman - Leis Of Jazz + Taboo (Unknown Year) [FLAC]/10 - Arthur Lyman - How High The Moon.flac
               /Volumes/osec/XLDs/Arthur Lyman - Leis Of Jazz + Taboo (Unknown Year) [MP3 V0]/10 - Arthur Lyman - How High The Moon.mp3
               /Volumes/osec/XLDs/Arthur Lyman - Leis Of Jazz + Taboo (Unknown Year) [MP3 320]/10 - Arthur Lyman - How High The Moon.mp3

    Track gain               : -2.62 dB
    Peak                     : 0.983917
    CRC32 hash (test run)    : 11C45742
    CRC32 hash               : 11C45742
    CRC32 hash (skip zero)   : 9D922D9C
    AccurateRip v1 signature : 534848E1
    AccurateRip v2 signature : 56C1618C
        ->Accurately ripped (v2, confidence 16/16)
    Statistics
        Read error                           : 0
        Jitter error (maybe fixed)           : 0
        Retry sector count                   : 0
        Damaged sector count                 : 0

Track 11
    Filename : /Volumes/osec/XLDs/Arthur Lyman - Leis Of Jazz + Taboo (Unknown Year) [FLAC]/11 - Arthur Lyman - Lullaby Of Birdland.flac
               /Volumes/osec/XLDs/Arthur Lyman - Leis Of Jazz + Taboo (Unknown Year) [MP3 V0]/11 - Arthur Lyman - Lullaby Of Birdland.mp3
               /Volumes/osec/XLDs/Arthur Lyman - Leis Of Jazz + Taboo (Unknown Year) [MP3 320]/11 - Arthur Lyman - Lullaby Of Birdland.mp3

    Track gain               : -2.61 dB
    Peak                     : 0.989105
    CRC32 hash (test run)    : 5352D229
    CRC32 hash               : 5352D229
    CRC32 hash (skip zero)   : DE81E509
    AccurateRip v1 signature : A508B439
    AccurateRip v2 signature : 580264E3
        ->Accurately ripped (v2, confidence 16/16)
    Statistics
        Read error                           : 0
        Jitter error (maybe fixed)           : 0
        Retry sector count                   : 0
        Damaged sector count                 : 0

Track 12
    Filename : /Volumes/osec/XLDs/Arthur Lyman - Leis Of Jazz + Taboo (Unknown Year) [FLAC]/12 - Arthur Lyman - Aloha Oe.flac
               /Volumes/osec/XLDs/Arthur Lyman - Leis Of Jazz + Taboo (Unknown Year) [MP3 V0]/12 - Arthur Lyman - Aloha Oe.mp3
               /Volumes/osec/XLDs/Arthur Lyman - Leis Of Jazz + Taboo (Unknown Year) [MP3 320]/12 - Arthur Lyman - Aloha Oe.mp3

    Track gain               : 0.78 dB
    Peak                     : 0.744415
    CRC32 hash (test run)    : 1EF3AE85
    CRC32 hash               : 1EF3AE85
    CRC32 hash (skip zero)   : 2BA6D671
    AccurateRip v1 signature : 7136B7EA
    AccurateRip v2 signature : F6E398FA
        ->Accurately ripped (v2, confidence 15/15)
    Statistics
        Read error                           : 0
        Jitter error (maybe fixed)           : 0
        Retry sector count                   : 0
        Damaged sector count                 : 0

Track 13
    Filename : /Volumes/osec/XLDs/Arthur Lyman - Leis Of Jazz + Taboo (Unknown Year) [FLAC]/13 - Arthur Lyman - Taboo.flac
               /Volumes/osec/XLDs/Arthur Lyman - Leis Of Jazz + Taboo (Unknown Year) [MP3 V0]/13 - Arthur Lyman - Taboo.mp3
               /Volumes/osec/XLDs/Arthur Lyman - Leis Of Jazz + Taboo (Unknown Year) [MP3 320]/13 - Arthur Lyman - Taboo.mp3

    Track gain               : -1.05 dB
    Peak                     : 0.968262
    CRC32 hash (test run)    : 09EEB726
    CRC32 hash               : 09EEB726
    CRC32 hash (skip zero)   : 764A041D
    AccurateRip v1 signature : 80856400
    AccurateRip v2 signature : 4580B60C
        ->Accurately ripped (v2, confidence 16/16)
    Statistics
        Read error                           : 0
        Jitter error (maybe fixed)           : 0
        Retry sector count                   : 0
        Damaged sector count                 : 0

Track 14
    Filename : /Volumes/osec/XLDs/Arthur Lyman - Leis Of Jazz + Taboo (Unknown Year) [FLAC]/14 - Arthur Lyman - Love Song Of Kalua.flac
               /Volumes/osec/XLDs/Arthur Lyman - Leis Of Jazz + Taboo (Unknown Year) [MP3 V0]/14 - Arthur Lyman - Love Song Of Kalua.mp3
               /Volumes/osec/XLDs/Arthur Lyman - Leis Of Jazz + Taboo (Unknown Year) [MP3 320]/14 - Arthur Lyman - Love Song Of Kalua.mp3

    Track gain               : 1.79 dB
    Peak                     : 0.658813
    CRC32 hash (test run)    : F19C8E0A
    CRC32 hash               : F19C8E0A
    CRC32 hash (skip zero)   : 6D4A5D2A
    AccurateRip v1 signature : B71B67E7
    AccurateRip v2 signature : 0E4A2EE5
        ->Accurately ripped (v2, confidence 15/15)
    Statistics
        Read error                           : 0
        Jitter error (maybe fixed)           : 0
        Retry sector count                   : 0
        Damaged sector count                 : 0

Track 15
    Filename : /Volumes/osec/XLDs/Arthur Lyman - Leis Of Jazz + Taboo (Unknown Year) [FLAC]/15 - Arthur Lyman - Ringo Oiwake.flac
               /Volumes/osec/XLDs/Arthur Lyman - Leis Of Jazz + Taboo (Unknown Year) [MP3 V0]/15 - Arthur Lyman - Ringo Oiwake.mp3
               /Volumes/osec/XLDs/Arthur Lyman - Leis Of Jazz + Taboo (Unknown Year) [MP3 320]/15 - Arthur Lyman - Ringo Oiwake.mp3

    Track gain               : -0.37 dB
    Peak                     : 0.851318
    CRC32 hash (test run)    : 994EEE7F
    CRC32 hash               : 994EEE7F
    CRC32 hash (skip zero)   : 48A06FA5
    AccurateRip v1 signature : EFD0735C
    AccurateRip v2 signature : 90F1D857
        ->Accurately ripped (v2, confidence 16/16)
    Statistics
        Read error                           : 0
        Jitter error (maybe fixed)           : 0
        Retry sector count                   : 0
        Damaged sector count                 : 0

Track 16
    Filename : /Volumes/osec/XLDs/Arthur Lyman - Leis Of Jazz + Taboo (Unknown Year) [FLAC]/16 - Arthur Lyman - Sea Breeze.flac
               /Volumes/osec/XLDs/Arthur Lyman - Leis Of Jazz + Taboo (Unknown Year) [MP3 V0]/16 - Arthur Lyman - Sea Breeze.mp3
               /Volumes/osec/XLDs/Arthur Lyman - Leis Of Jazz + Taboo (Unknown Year) [MP3 320]/16 - Arthur Lyman - Sea Breeze.mp3

    Track gain               : 3.54 dB
    Peak                     : 0.636993
    CRC32 hash (test run)    : 33F9D601
    CRC32 hash               : 33F9D601
    CRC32 hash (skip zero)   : DC1E9E85
    AccurateRip v1 signature : 446269DD
    AccurateRip v2 signature : 6C3D5434
        ->Accurately ripped (v2, confidence 16/16)
    Statistics
        Read error                           : 0
        Jitter error (maybe fixed)           : 0
        Retry sector count                   : 0
        Damaged sector count                 : 0

Track 17
    Filename : /Volumes/osec/XLDs/Arthur Lyman - Leis Of Jazz + Taboo (Unknown Year) [FLAC]/17 - Arthur Lyman - Misirlou.flac
               /Volumes/osec/XLDs/Arthur Lyman - Leis Of Jazz + Taboo (Unknown Year) [MP3 V0]/17 - Arthur Lyman - Misirlou.mp3
               /Volumes/osec/XLDs/Arthur Lyman - Leis Of Jazz + Taboo (Unknown Year) [MP3 320]/17 - Arthur Lyman - Misirlou.mp3

    Track gain               : -1.30 dB
    Peak                     : 0.970001
    CRC32 hash (test run)    : 144B3995
    CRC32 hash               : 144B3995
    CRC32 hash (skip zero)   : 35BCD7AA
    AccurateRip v1 signature : 0BE41D5E
    AccurateRip v2 signature : E630E264
        ->Accurately ripped (v2, confidence 16/16)
    Statistics
        Read error                           : 0
        Jitter error (maybe fixed)           : 0
        Retry sector count                   : 0
        Damaged sector count                 : 0

Track 18
    Filename : /Volumes/osec/XLDs/Arthur Lyman - Leis Of Jazz + Taboo (Unknown Year) [FLAC]/18 - Arthur Lyman - China Clipper.flac
               /Volumes/osec/XLDs/Arthur Lyman - Leis Of Jazz + Taboo (Unknown Year) [MP3 V0]/18 - Arthur Lyman - China Clipper.mp3
               /Volumes/osec/XLDs/Arthur Lyman - Leis Of Jazz + Taboo (Unknown Year) [MP3 320]/18 - Arthur Lyman - China Clipper.mp3

    Track gain               : 1.09 dB
    Peak                     : 0.657074
    CRC32 hash (test run)    : CB8C4708
    CRC32 hash               : CB8C4708
    CRC32 hash (skip zero)   : FB68523B
    AccurateRip v1 signature : 0E2C7CE9
    AccurateRip v2 signature : 9E449BB0
        ->Accurately ripped (v2, confidence 16/16)
    Statistics
        Read error                           : 0
        Jitter error (maybe fixed)           : 0
        Retry sector count                   : 0
        Damaged sector count                 : 0

Track 19
    Filename : /Volumes/osec/XLDs/Arthur Lyman - Leis Of Jazz + Taboo (Unknown Year) [FLAC]/19 - Arthur Lyman - Sim Sim.flac
               /Volumes/osec/XLDs/Arthur Lyman - Leis Of Jazz + Taboo (Unknown Year) [MP3 V0]/19 - Arthur Lyman - Sim Sim.mp3
               /Volumes/osec/XLDs/Arthur Lyman - Leis Of Jazz + Taboo (Unknown Year) [MP3 320]/19 - Arthur Lyman - Sim Sim.mp3

    Track gain               : 0.83 dB
    Peak                     : 0.838287
    CRC32 hash (test run)    : C92A6E21
    CRC32 hash               : C92A6E21
    CRC32 hash (skip zero)   : 978495F8
    AccurateRip v1 signature : DA3B2BF9
    AccurateRip v2 signature : 1CE92ED1
        ->Accurately ripped (v2, confidence 16/16)
    Statistics
        Read error                           : 0
        Jitter error (maybe fixed)           : 0
        Retry sector count                   : 0
        Damaged sector count                 : 0

Track 20
    Filename : /Volumes/osec/XLDs/Arthur Lyman - Leis Of Jazz + Taboo (Unknown Year) [FLAC]/20 - Arthur Lyman - Katsumi Love Theme.flac
               /Volumes/osec/XLDs/Arthur Lyman - Leis Of Jazz + Taboo (Unknown Year) [MP3 V0]/20 - Arthur Lyman - Katsumi Love Theme.mp3
               /Volumes/osec/XLDs/Arthur Lyman - Leis Of Jazz + Taboo (Unknown Year) [MP3 320]/20 - Arthur Lyman - Katsumi Love Theme.mp3

    Track gain               : 0.73 dB
    Peak                     : 0.701385
    CRC32 hash (test run)    : 39FE54A7
    CRC32 hash               : 39FE54A7
    CRC32 hash (skip zero)   : DA1E91F6
    AccurateRip v1 signature : 68B10B30
    AccurateRip v2 signature : 794DAB4C
        ->Accurately ripped (v2, confidence 15/15)
    Statistics
        Read error                           : 0
        Jitter error (maybe fixed)           : 0
        Retry sector count                   : 0
        Damaged sector count                 : 0

Track 21
    Filename : /Volumes/osec/XLDs/Arthur Lyman - Leis Of Jazz + Taboo (Unknown Year) [FLAC]/21 - Arthur Lyman - Caravan.flac
               /Volumes/osec/XLDs/Arthur Lyman - Leis Of Jazz + Taboo (Unknown Year) [MP3 V0]/21 - Arthur Lyman - Caravan.mp3
               /Volumes/osec/XLDs/Arthur Lyman - Leis Of Jazz + Taboo (Unknown Year) [MP3 320]/21 - Arthur Lyman - Caravan.mp3

    Track gain               : 1.46 dB
    Peak                     : 0.747131
    CRC32 hash (test run)    : B18FFB0A
    CRC32 hash               : B18FFB0A
    CRC32 hash (skip zero)   : E52BCE91
    AccurateRip v1 signature : 095B4486
    AccurateRip v2 signature : 5FBD362D
        ->Accurately ripped (v2, confidence 16/16)
    Statistics
        Read error                           : 0
        Jitter error (maybe fixed)           : 0
        Retry sector count                   : 0
        Damaged sector count                 : 0

Track 22
    Filename : /Volumes/osec/XLDs/Arthur Lyman - Leis Of Jazz + Taboo (Unknown Year) [FLAC]/22 - Arthur Lyman - Akaka Falls.flac
               /Volumes/osec/XLDs/Arthur Lyman - Leis Of Jazz + Taboo (Unknown Year) [MP3 V0]/22 - Arthur Lyman - Akaka Falls.mp3
               /Volumes/osec/XLDs/Arthur Lyman - Leis Of Jazz + Taboo (Unknown Year) [MP3 320]/22 - Arthur Lyman - Akaka Falls.mp3

    Track gain               : 1.38 dB
    Peak                     : 0.760895
    CRC32 hash (test run)    : 0F4278A9
    CRC32 hash               : 0F4278A9
    CRC32 hash (skip zero)   : BA1A7CE8
    AccurateRip v1 signature : 5F39BD01
    AccurateRip v2 signature : 8C17AE19
        ->Accurately ripped (v2, confidence 16/16)
    Statistics
        Read error                           : 0
        Jitter error (maybe fixed)           : 0
        Retry sector count                   : 0
        Damaged sector count                 : 0

Track 23
    Filename : /Volumes/osec/XLDs/Arthur Lyman - Leis Of Jazz + Taboo (Unknown Year) [FLAC]/23 - Arthur Lyman - Dahil Sayo.flac
               /Volumes/osec/XLDs/Arthur Lyman - Leis Of Jazz + Taboo (Unknown Year) [MP3 V0]/23 - Arthur Lyman - Dahil Sayo.mp3
               /Volumes/osec/XLDs/Arthur Lyman - Leis Of Jazz + Taboo (Unknown Year) [MP3 320]/23 - Arthur Lyman - Dahil Sayo.mp3

    Track gain               : 2.36 dB
    Peak                     : 0.951843
    CRC32 hash (test run)    : 53E2EA45
    CRC32 hash               : 53E2EA45
    CRC32 hash (skip zero)   : 433B72CC
    AccurateRip v1 signature : AEE7204A
    AccurateRip v2 signature : 319A0FDB
        ->Accurately ripped (v2, confidence 16/16)
    Statistics
        Read error                           : 0
        Jitter error (maybe fixed)           : 0
        Retry sector count                   : 0
        Damaged sector count                 : 0

Track 24
    Filename : /Volumes/osec/XLDs/Arthur Lyman - Leis Of Jazz + Taboo (Unknown Year) [FLAC]/24 - Arthur Lyman - Hilo March.flac
               /Volumes/osec/XLDs/Arthur Lyman - Leis Of Jazz + Taboo (Unknown Year) [MP3 V0]/24 - Arthur Lyman - Hilo March.mp3
               /Volumes/osec/XLDs/Arthur Lyman - Leis Of Jazz + Taboo (Unknown Year) [MP3 320]/24 - Arthur Lyman - Hilo March.mp3

    Track gain               : 0.52 dB
    Peak                     : 0.753113
    CRC32 hash (test run)    : 8779567F
    CRC32 hash               : 8779567F
    CRC32 hash (skip zero)   : 8F1D1739
    AccurateRip v1 signature : 52D73560
    AccurateRip v2 signature : 660101A2
        ->Accurately ripped (v2, confidence 16/16)
    Statistics
        Read error                           : 0
        Jitter error (maybe fixed)           : 0
        Retry sector count                   : 0
        Damaged sector count                 : 0

No errors occurred

End of status report

-----BEGIN XLD SIGNATURE-----
sSLAsqQvrSDaqztW_kDc2w_qFgijqPkqZfrnC13xd5MS6DYC9hjUtX5IGTWIksTyDeNn35AOIk5QTUc9_LFwLcwpo41M5Qbvhld5SlK
-----END XLD SIGNATURE-----

CD2
X Lossless Decoder version 20161007 (149.3)

XLD extraction logfile from 2017-03-08 14:34:27 +0100

Arthur Lyman / Hawaiian Sunset + Bwana A

Used drive : MATSHITA BD-MLT UJ272 (revision 1.01)
Media type : Pressed CD

Ripper mode             : XLD Secure Ripper
Disable audio cache     : OK for the drive with a cache less than 1375KiB
Make use of C2 pointers : NO
Read offset correction  : 103
Max retry count         : 20
Gap status              : Analyzed, Appended (except HTOA)

TOC of the extracted CD
     Track |   Start  |  Length  | Start sector | End sector
    ---------------------------------------------------------
        1  | 00:00:00 | 03:42:19 |         0    |    16668
        2  | 03:42:19 | 01:55:68 |     16669    |    25361
        3  | 05:38:12 | 02:20:13 |     25362    |    35874
        4  | 07:58:25 | 02:15:19 |     35875    |    46018
        5  | 10:13:44 | 02:28:60 |     46019    |    57178
        6  | 12:42:29 | 02:43:37 |     57179    |    69440
        7  | 15:25:66 | 01:10:14 |     69441    |    74704
        8  | 16:36:05 | 02:40:74 |     74705    |    86778
        9  | 19:17:04 | 02:05:66 |     86779    |    96219
       10  | 21:22:70 | 02:40:39 |     96220    |   108258
       11  | 24:03:34 | 02:25:54 |    108259    |   119187
       12  | 26:29:13 | 03:00:07 |    119188    |   132694
       13  | 29:29:20 | 03:15:01 |    132695    |   147320
       14  | 32:44:21 | 04:34:71 |    147321    |   167941
       15  | 37:19:17 | 04:09:41 |    167942    |   186657
       16  | 41:28:58 | 03:21:70 |    186658    |   201802
       17  | 44:50:53 | 02:51:36 |    201803    |   214663
       18  | 47:42:14 | 02:30:10 |    214664    |   225923
       19  | 50:12:24 | 02:44:00 |    225924    |   238223
       20  | 52:56:24 | 02:13:60 |    238224    |   248258
       21  | 55:10:09 | 03:33:31 |    248259    |   264264
       22  | 58:43:40 | 03:56:71 |    264265    |   282035
       23  | 62:40:36 | 03:04:23 |    282036    |   295858
       24  | 65:44:59 | 02:24:65 |    295859    |   306723
       25  | 68:09:49 | 04:07:56 |    306724    |   325304

AccurateRip Summary (DiscID: 003ca0ff-0454b2fa-7210f119)
    Track 01 : OK (v2, confidence 15/15)
    Track 02 : OK (v2, confidence 15/15)
    Track 03 : OK (v2, confidence 15/15)
    Track 04 : OK (v2, confidence 14/14)
    Track 05 : OK (v2, confidence 15/15)
    Track 06 : OK (v2, confidence 15/15)
    Track 07 : OK (v2, confidence 15/15)
    Track 08 : OK (v2, confidence 14/14)
    Track 09 : OK (v2, confidence 15/15)
    Track 10 : OK (v2, confidence 15/15)
    Track 11 : OK (v2, confidence 15/15)
    Track 12 : OK (v2, confidence 15/15)
    Track 13 : OK (v2, confidence 15/15)
    Track 14 : OK (v2, confidence 15/15)
    Track 15 : OK (v2, confidence 15/15)
    Track 16 : OK (v2, confidence 15/15)
    Track 17 : OK (v2, confidence 15/15)
    Track 18 : OK (v2, confidence 15/15)
    Track 19 : OK (v2, confidence 15/15)
    Track 20 : OK (v2, confidence 15/15)
    Track 21 : OK (v2, confidence 15/15)
    Track 22 : OK (v2, confidence 15/15)
    Track 23 : OK (v2, confidence 15/15)
    Track 24 : OK (v2, confidence 15/15)
    Track 25 : OK (v2, confidence 14/14)
        ->All tracks accurately ripped.

All Tracks
    Album gain               : 0.95 dB
    Peak                     : 0.999969
    Statistics
        Read error                           : 0
        Jitter error (maybe fixed)           : 0
        Retry sector count                   : 0
        Damaged sector count                 : 0

Track 01
    Filename : /Volumes/osec/XLDs/Arthur Lyman - Hawaiian Sunset + Bwana A (Unknown Year) [FLAC]/01 - Arthur Lyman - Hawaiian War Chant.flac
               /Volumes/osec/XLDs/Arthur Lyman - Hawaiian Sunset + Bwana A (Unknown Year) [MP3 V0]/01 - Arthur Lyman - Hawaiian War Chant.mp3
               /Volumes/osec/XLDs/Arthur Lyman - Hawaiian Sunset + Bwana A (Unknown Year) [MP3 320]/01 - Arthur Lyman - Hawaiian War Chant.mp3
    Pre-gap length : 00:02:00

    Track gain               : 3.39 dB
    Peak                     : 0.999969
    CRC32 hash (test run)    : 4EE74FB4
    CRC32 hash               : 4EE74FB4
    CRC32 hash (skip zero)   : E2FAEE1D
    AccurateRip v1 signature : FB9E22D8
    AccurateRip v2 signature : F5491A68
        ->Accurately ripped (v2, confidence 15/15)
    Statistics
        Read error                           : 0
        Jitter error (maybe fixed)           : 0
        Retry sector count                   : 0
        Damaged sector count                 : 0

Track 02
    Filename : /Volumes/osec/XLDs/Arthur Lyman - Hawaiian Sunset + Bwana A (Unknown Year) [FLAC]/02 - Arthur Lyman - Sweet Leilani.flac
               /Volumes/osec/XLDs/Arthur Lyman - Hawaiian Sunset + Bwana A (Unknown Year) [MP3 V0]/02 - Arthur Lyman - Sweet Leilani.mp3
               /Volumes/osec/XLDs/Arthur Lyman - Hawaiian Sunset + Bwana A (Unknown Year) [MP3 320]/02 - Arthur Lyman - Sweet Leilani.mp3

    Track gain               : 3.44 dB
    Peak                     : 0.609406
    CRC32 hash (test run)    : 984B9BDD
    CRC32 hash               : 984B9BDD
    CRC32 hash (skip zero)   : 4FD5543D
    AccurateRip v1 signature : 8C93253F
    AccurateRip v2 signature : D2596089
        ->Accurately ripped (v2, confidence 15/15)
    Statistics
        Read error                           : 0
        Jitter error (maybe fixed)           : 0
        Retry sector count                   : 0
        Damaged sector count                 : 0

Track 03
    Filename : /Volumes/osec/XLDs/Arthur Lyman - Hawaiian Sunset + Bwana A (Unknown Year) [FLAC]/03 - Arthur Lyman - Imi Au Ia Oe (King's Serenade).flac
               /Volumes/osec/XLDs/Arthur Lyman - Hawaiian Sunset + Bwana A (Unknown Year) [MP3 V0]/03 - Arthur Lyman - Imi Au Ia Oe (King's Serenade).mp3
               /Volumes/osec/XLDs/Arthur Lyman - Hawaiian Sunset + Bwana A (Unknown Year) [MP3 320]/03 - Arthur Lyman - Imi Au Ia Oe (King's Serenade).mp3

    Track gain               : 1.20 dB
    Peak                     : 0.516937
    CRC32 hash (test run)    : 6CFE14ED
    CRC32 hash               : 6CFE14ED
    CRC32 hash (skip zero)   : 21EC16C5
    AccurateRip v1 signature : 17F78373
    AccurateRip v2 signature : EBC3259E
        ->Accurately ripped (v2, confidence 15/15)
    Statistics
        Read error                           : 0
        Jitter error (maybe fixed)           : 0
        Retry sector count                   : 0
        Damaged sector count                 : 0

Track 04
    Filename : /Volumes/osec/XLDs/Arthur Lyman - Hawaiian Sunset + Bwana A (Unknown Year) [FLAC]/04 - Arthur Lyman - My Tane.flac
               /Volumes/osec/XLDs/Arthur Lyman - Hawaiian Sunset + Bwana A (Unknown Year) [MP3 V0]/04 - Arthur Lyman - My Tane.mp3
               /Volumes/osec/XLDs/Arthur Lyman - Hawaiian Sunset + Bwana A (Unknown Year) [MP3 320]/04 - Arthur Lyman - My Tane.mp3

    Track gain               : 3.40 dB
    Peak                     : 0.641388
    CRC32 hash (test run)    : 3EFAEA40
    CRC32 hash               : 3EFAEA40
    CRC32 hash (skip zero)   : 6457752D
    AccurateRip v1 signature : 5D0E8600
    AccurateRip v2 signature : BA08B028
        ->Accurately ripped (v2, confidence 14/14)
    Statistics
        Read error                           : 0
        Jitter error (maybe fixed)           : 0
        Retry sector count                   : 0
        Damaged sector count                 : 0

Track 05
    Filename : /Volumes/osec/XLDs/Arthur Lyman - Hawaiian Sunset + Bwana A (Unknown Year) [FLAC]/05 - Arthur Lyman - Whispering Reef Lullaby.flac
               /Volumes/osec/XLDs/Arthur Lyman - Hawaiian Sunset + Bwana A (Unknown Year) [MP3 V0]/05 - Arthur Lyman - Whispering Reef Lullaby.mp3
               /Volumes/osec/XLDs/Arthur Lyman - Hawaiian Sunset + Bwana A (Unknown Year) [MP3 320]/05 - Arthur Lyman - Whispering Reef Lullaby.mp3

    Track gain               : 10.39 dB
    Peak                     : 0.365417
    CRC32 hash (test run)    : D231138F
    CRC32 hash               : D231138F
    CRC32 hash (skip zero)   : B9169689
    AccurateRip v1 signature : B787A2CF
    AccurateRip v2 signature : 3CA2B36D
        ->Accurately ripped (v2, confidence 15/15)
    Statistics
        Read error                           : 0
        Jitter error (maybe fixed)           : 0
        Retry sector count                   : 0
        Damaged sector count                 : 0

Track 06
    Filename : /Volumes/osec/XLDs/Arthur Lyman - Hawaiian Sunset + Bwana A (Unknown Year) [FLAC]/06 - Arthur Lyman - Song of the Islands (Na Lei O Hawaii).flac
               /Volumes/osec/XLDs/Arthur Lyman - Hawaiian Sunset + Bwana A (Unknown Year) [MP3 V0]/06 - Arthur Lyman - Song of the Islands (Na Lei O Hawaii).mp3
               /Volumes/osec/XLDs/Arthur Lyman - Hawaiian Sunset + Bwana A (Unknown Year) [MP3 320]/06 - Arthur Lyman - Song of the Islands (Na Lei O Hawaii).mp3

    Track gain               : 4.68 dB
    Peak                     : 0.651367
    CRC32 hash (test run)    : F82A3BAC
    CRC32 hash               : F82A3BAC
    CRC32 hash (skip zero)   : E6258C05
    AccurateRip v1 signature : 8BD50710
    AccurateRip v2 signature : 79F4784F
        ->Accurately ripped (v2, confidence 15/15)
    Statistics
        Read error                           : 0
        Jitter error (maybe fixed)           : 0
        Retry sector count                   : 0
        Damaged sector count                 : 0

Track 07
    Filename : /Volumes/osec/XLDs/Arthur Lyman - Hawaiian Sunset + Bwana A (Unknown Year) [FLAC]/07 - Arthur Lyman - Hilawe.flac
               /Volumes/osec/XLDs/Arthur Lyman - Hawaiian Sunset + Bwana A (Unknown Year) [MP3 V0]/07 - Arthur Lyman - Hilawe.mp3
               /Volumes/osec/XLDs/Arthur Lyman - Hawaiian Sunset + Bwana A (Unknown Year) [MP3 320]/07 - Arthur Lyman - Hilawe.mp3

    Track gain               : 2.12 dB
    Peak                     : 0.704926
    CRC32 hash (test run)    : EA0924E2
    CRC32 hash               : EA0924E2
    CRC32 hash (skip zero)   : BCD56E24
    AccurateRip v1 signature : 588DD825
    AccurateRip v2 signature : 244092E9
        ->Accurately ripped (v2, confidence 15/15)
    Statistics
        Read error                           : 0
        Jitter error (maybe fixed)           : 0
        Retry sector count                   : 0
        Damaged sector count                 : 0

Track 08
    Filename : /Volumes/osec/XLDs/Arthur Lyman - Hawaiian Sunset + Bwana A (Unknown Year) [FLAC]/08 - Arthur Lyman - Isle of Golden Dreams.flac
               /Volumes/osec/XLDs/Arthur Lyman - Hawaiian Sunset + Bwana A (Unknown Year) [MP3 V0]/08 - Arthur Lyman - Isle of Golden Dreams.mp3
               /Volumes/osec/XLDs/Arthur Lyman - Hawaiian Sunset + Bwana A (Unknown Year) [MP3 320]/08 - Arthur Lyman - Isle of Golden Dreams.mp3

    Track gain               : 2.86 dB
    Peak                     : 0.800934
    CRC32 hash (test run)    : 2E0121F2
    CRC32 hash               : 2E0121F2
    CRC32 hash (skip zero)   : D6C41D32
    AccurateRip v1 signature : 310D71C3
    AccurateRip v2 signature : 55244184
        ->Accurately ripped (v2, confidence 14/14)
    Statistics
        Read error                           : 0
        Jitter error (maybe fixed)           : 0
        Retry sector count                   : 0
        Damaged sector count                 : 0

Track 09
    Filename : /Volumes/osec/XLDs/Arthur Lyman - Hawaiian Sunset + Bwana A (Unknown Year) [FLAC]/09 - Arthur Lyman - Mapuana.flac
               /Volumes/osec/XLDs/Arthur Lyman - Hawaiian Sunset + Bwana A (Unknown Year) [MP3 V0]/09 - Arthur Lyman - Mapuana.mp3
               /Volumes/osec/XLDs/Arthur Lyman - Hawaiian Sunset + Bwana A (Unknown Year) [MP3 320]/09 - Arthur Lyman - Mapuana.mp3

    Track gain               : 1.73 dB
    Peak                     : 0.765900
    CRC32 hash (test run)    : 36BC5A78
    CRC32 hash               : 36BC5A78
    CRC32 hash (skip zero)   : 0E0D8FC9
    AccurateRip v1 signature : 03C02246
    AccurateRip v2 signature : 1D63E8FC
        ->Accurately ripped (v2, confidence 15/15)
    Statistics
        Read error                           : 0
        Jitter error (maybe fixed)           : 0
        Retry sector count                   : 0
        Damaged sector count                 : 0

Track 10
    Filename : /Volumes/osec/XLDs/Arthur Lyman - Hawaiian Sunset + Bwana A (Unknown Year) [FLAC]/10 - Arthur Lyman - Waipio.flac
               /Volumes/osec/XLDs/Arthur Lyman - Hawaiian Sunset + Bwana A (Unknown Year) [MP3 V0]/10 - Arthur Lyman - Waipio.mp3
               /Volumes/osec/XLDs/Arthur Lyman - Hawaiian Sunset + Bwana A (Unknown Year) [MP3 320]/10 - Arthur Lyman - Waipio.mp3

    Track gain               : 4.18 dB
    Peak                     : 0.607544
    CRC32 hash (test run)    : 9741A90C
    CRC32 hash               : 9741A90C
    CRC32 hash (skip zero)   : 5DA5F631
    AccurateRip v1 signature : ABA77B89
    AccurateRip v2 signature : 27DE971E
        ->Accurately ripped (v2, confidence 15/15)
    Statistics
        Read error                           : 0
        Jitter error (maybe fixed)           : 0
        Retry sector count                   : 0
        Damaged sector count                 : 0

Track 11
    Filename : /Volumes/osec/XLDs/Arthur Lyman - Hawaiian Sunset + Bwana A (Unknown Year) [FLAC]/11 - Arthur Lyman - Kawohikukapulani.flac
               /Volumes/osec/XLDs/Arthur Lyman - Hawaiian Sunset + Bwana A (Unknown Year) [MP3 V0]/11 - Arthur Lyman - Kawohikukapulani.mp3
               /Volumes/osec/XLDs/Arthur Lyman - Hawaiian Sunset + Bwana A (Unknown Year) [MP3 320]/11 - Arthur Lyman - Kawohikukapulani.mp3

    Track gain               : 1.37 dB
    Peak                     : 0.902222
    CRC32 hash (test run)    : BFEAE877
    CRC32 hash               : BFEAE877
    CRC32 hash (skip zero)   : 2FF2A01B
    AccurateRip v1 signature : E90B28F1
    AccurateRip v2 signature : 684C3B23
        ->Accurately ripped (v2, confidence 15/15)
    Statistics
        Read error                           : 0
        Jitter error (maybe fixed)           : 0
        Retry sector count                   : 0
        Damaged sector count                 : 0

Track 12
    Filename : /Volumes/osec/XLDs/Arthur Lyman - Hawaiian Sunset + Bwana A (Unknown Year) [FLAC]/12 - Arthur Lyman - Ke Kali Nei Au.flac
               /Volumes/osec/XLDs/Arthur Lyman - Hawaiian Sunset + Bwana A (Unknown Year) [MP3 V0]/12 - Arthur Lyman - Ke Kali Nei Au.mp3
               /Volumes/osec/XLDs/Arthur Lyman - Hawaiian Sunset + Bwana A (Unknown Year) [MP3 320]/12 - Arthur Lyman - Ke Kali Nei Au.mp3

    Track gain               : 3.21 dB
    Peak                     : 0.698364
    CRC32 hash (test run)    : C4E5013E
    CRC32 hash               : C4E5013E
    CRC32 hash (skip zero)   : B59C857A
    AccurateRip v1 signature : 156AF5EB
    AccurateRip v2 signature : E20D4609
        ->Accurately ripped (v2, confidence 15/15)
    Statistics
        Read error                           : 0
        Jitter error (maybe fixed)           : 0
        Retry sector count                   : 0
        Damaged sector count                 : 0

Track 13
    Filename : /Volumes/osec/XLDs/Arthur Lyman - Hawaiian Sunset + Bwana A (Unknown Year) [FLAC]/13 - Arthur Lyman - Harbor Lights.flac
               /Volumes/osec/XLDs/Arthur Lyman - Hawaiian Sunset + Bwana A (Unknown Year) [MP3 V0]/13 - Arthur Lyman - Harbor Lights.mp3
               /Volumes/osec/XLDs/Arthur Lyman - Hawaiian Sunset + Bwana A (Unknown Year) [MP3 320]/13 - Arthur Lyman - Harbor Lights.mp3

    Track gain               : 6.89 dB
    Peak                     : 0.662231
    CRC32 hash (test run)    : DEED9B18
    CRC32 hash               : DEED9B18
    CRC32 hash (skip zero)   : 83FF1F61
    AccurateRip v1 signature : 5A687181
    AccurateRip v2 signature : 5515F2A5
        ->Accurately ripped (v2, confidence 15/15)
    Statistics
        Read error                           : 0
        Jitter error (maybe fixed)           : 0
        Retry sector count                   : 0
        Damaged sector count                 : 0

Track 14
    Filename : /Volumes/osec/XLDs/Arthur Lyman - Hawaiian Sunset + Bwana A (Unknown Year) [FLAC]/14 - Arthur Lyman - Bwana A.flac
               /Volumes/osec/XLDs/Arthur Lyman - Hawaiian Sunset + Bwana A (Unknown Year) [MP3 V0]/14 - Arthur Lyman - Bwana A.mp3
               /Volumes/osec/XLDs/Arthur Lyman - Hawaiian Sunset + Bwana A (Unknown Year) [MP3 320]/14 - Arthur Lyman - Bwana A.mp3

    Track gain               : -0.17 dB
    Peak                     : 0.967133
    CRC32 hash (test run)    : 4ECEB432
    CRC32 hash               : 4ECEB432
    CRC32 hash (skip zero)   : 7A8C33CC
    AccurateRip v1 signature : B0363C41
    AccurateRip v2 signature : 0452114F
        ->Accurately ripped (v2, confidence 15/15)
    Statistics
        Read error                           : 0
        Jitter error (maybe fixed)           : 0
        Retry sector count                   : 0
        Damaged sector count                 : 0

Track 15
    Filename : /Volumes/osec/XLDs/Arthur Lyman - Hawaiian Sunset + Bwana A (Unknown Year) [FLAC]/15 - Arthur Lyman - South Pacific Moonlight.flac
               /Volumes/osec/XLDs/Arthur Lyman - Hawaiian Sunset + Bwana A (Unknown Year) [MP3 V0]/15 - Arthur Lyman - South Pacific Moonlight.mp3
               /Volumes/osec/XLDs/Arthur Lyman - Hawaiian Sunset + Bwana A (Unknown Year) [MP3 320]/15 - Arthur Lyman - South Pacific Moonlight.mp3

    Track gain               : 1.60 dB
    Peak                     : 0.767578
    CRC32 hash (test run)    : C55F73E0
    CRC32 hash               : C55F73E0
    CRC32 hash (skip zero)   : A9881647
    AccurateRip v1 signature : AAE17B05
    AccurateRip v2 signature : EE1AE8CD
        ->Accurately ripped (v2, confidence 15/15)
    Statistics
        Read error                           : 0
        Jitter error (maybe fixed)           : 0
        Retry sector count                   : 0
        Damaged sector count                 : 0

Track 16
    Filename : /Volumes/osec/XLDs/Arthur Lyman - Hawaiian Sunset + Bwana A (Unknown Year) [FLAC]/16 - Arthur Lyman - Moon over a Ruined Castle.flac
               /Volumes/osec/XLDs/Arthur Lyman - Hawaiian Sunset + Bwana A (Unknown Year) [MP3 V0]/16 - Arthur Lyman - Moon over a Ruined Castle.mp3
               /Volumes/osec/XLDs/Arthur Lyman - Hawaiian Sunset + Bwana A (Unknown Year) [MP3 320]/16 - Arthur Lyman - Moon over a Ruined Castle.mp3

    Track gain               : 3.82 dB
    Peak                     : 0.755981
    CRC32 hash (test run)    : 420C29C4
    CRC32 hash               : 420C29C4
    CRC32 hash (skip zero)   : 121DB71D
    AccurateRip v1 signature : 1ACD3645
    AccurateRip v2 signature : C789B233
        ->Accurately ripped (v2, confidence 15/15)
    Statistics
        Read error                           : 0
        Jitter error (maybe fixed)           : 0
        Retry sector count                   : 0
        Damaged sector count                 : 0

Track 17
    Filename : /Volumes/osec/XLDs/Arthur Lyman - Hawaiian Sunset + Bwana A (Unknown Year) [FLAC]/17 - Arthur Lyman - Waikiki Serenade.flac
               /Volumes/osec/XLDs/Arthur Lyman - Hawaiian Sunset + Bwana A (Unknown Year) [MP3 V0]/17 - Arthur Lyman - Waikiki Serenade.mp3
               /Volumes/osec/XLDs/Arthur Lyman - Hawaiian Sunset + Bwana A (Unknown Year) [MP3 320]/17 - Arthur Lyman - Waikiki Serenade.mp3

    Track gain               : 0.32 dB
    Peak                     : 0.879547
    CRC32 hash (test run)    : 1147DF52
    CRC32 hash               : 1147DF52
    CRC32 hash (skip zero)   : A545C515
    AccurateRip v1 signature : 40EF69C4
    AccurateRip v2 signature : 75F6B4E0
        ->Accurately ripped (v2, confidence 15/15)
    Statistics
        Read error                           : 0
        Jitter error (maybe fixed)           : 0
        Retry sector count                   : 0
        Damaged sector count                 : 0

Track 18
    Filename : /Volumes/osec/XLDs/Arthur Lyman - Hawaiian Sunset + Bwana A (Unknown Year) [FLAC]/18 - Arthur Lyman - La Paloma.flac
               /Volumes/osec/XLDs/Arthur Lyman - Hawaiian Sunset + Bwana A (Unknown Year) [MP3 V0]/18 - Arthur Lyman - La Paloma.mp3
               /Volumes/osec/XLDs/Arthur Lyman - Hawaiian Sunset + Bwana A (Unknown Year) [MP3 320]/18 - Arthur Lyman - La Paloma.mp3

    Track gain               : -0.80 dB
    Peak                     : 0.889404
    CRC32 hash (test run)    : 0BCDE862
    CRC32 hash               : 0BCDE862
    CRC32 hash (skip zero)   : B9F313F2
    AccurateRip v1 signature : 7892E316
    AccurateRip v2 signature : 04933BEB
        ->Accurately ripped (v2, confidence 15/15)
    Statistics
        Read error                           : 0
        Jitter error (maybe fixed)           : 0
        Retry sector count                   : 0
        Damaged sector count                 : 0

Track 19
    Filename : /Volumes/osec/XLDs/Arthur Lyman - Hawaiian Sunset + Bwana A (Unknown Year) [FLAC]/19 - Arthur Lyman - Otome San.flac
               /Volumes/osec/XLDs/Arthur Lyman - Hawaiian Sunset + Bwana A (Unknown Year) [MP3 V0]/19 - Arthur Lyman - Otome San.mp3
               /Volumes/osec/XLDs/Arthur Lyman - Hawaiian Sunset + Bwana A (Unknown Year) [MP3 320]/19 - Arthur Lyman - Otome San.mp3

    Track gain               : -4.24 dB
    Peak                     : 0.870728
    CRC32 hash (test run)    : DF932982
    CRC32 hash               : DF932982
    CRC32 hash (skip zero)   : 04EA8A23
    AccurateRip v1 signature : 627599AF
    AccurateRip v2 signature : 0E12ACB8
        ->Accurately ripped (v2, confidence 15/15)
    Statistics
        Read error                           : 0
        Jitter error (maybe fixed)           : 0
        Retry sector count                   : 0
        Damaged sector count                 : 0

Track 20
    Filename : /Volumes/osec/XLDs/Arthur Lyman - Hawaiian Sunset + Bwana A (Unknown Year) [FLAC]/20 - Arthur Lyman - Canton Rose.flac
               /Volumes/osec/XLDs/Arthur Lyman - Hawaiian Sunset + Bwana A (Unknown Year) [MP3 V0]/20 - Arthur Lyman - Canton Rose.mp3
               /Volumes/osec/XLDs/Arthur Lyman - Hawaiian Sunset + Bwana A (Unknown Year) [MP3 320]/20 - Arthur Lyman - Canton Rose.mp3

    Track gain               : -0.92 dB
    Peak                     : 0.926422
    CRC32 hash (test run)    : 23CC8A9D
    CRC32 hash               : 23CC8A9D
    CRC32 hash (skip zero)   : 68DB2D4C
    AccurateRip v1 signature : AE9B3631
    AccurateRip v2 signature : AB1384BE
        ->Accurately ripped (v2, confidence 15/15)
    Statistics
        Read error                           : 0
        Jitter error (maybe fixed)           : 0
        Retry sector count                   : 0
        Damaged sector count                 : 0

Track 21
    Filename : /Volumes/osec/XLDs/Arthur Lyman - Hawaiian Sunset + Bwana A (Unknown Year) [FLAC]/21 - Arthur Lyman - Blue Sands.flac
               /Volumes/osec/XLDs/Arthur Lyman - Hawaiian Sunset + Bwana A (Unknown Year) [MP3 V0]/21 - Arthur Lyman - Blue Sands.mp3
               /Volumes/osec/XLDs/Arthur Lyman - Hawaiian Sunset + Bwana A (Unknown Year) [MP3 320]/21 - Arthur Lyman - Blue Sands.mp3

    Track gain               : 5.15 dB
    Peak                     : 0.851471
    CRC32 hash (test run)    : 2DC6E170
    CRC32 hash               : 2DC6E170
    CRC32 hash (skip zero)   : 37302EEC
    AccurateRip v1 signature : D9E155C8
    AccurateRip v2 signature : 95A2A8B6
        ->Accurately ripped (v2, confidence 15/15)
    Statistics
        Read error                           : 0
        Jitter error (maybe fixed)           : 0
        Retry sector count                   : 0
        Damaged sector count                 : 0

Track 22
    Filename : /Volumes/osec/XLDs/Arthur Lyman - Hawaiian Sunset + Bwana A (Unknown Year) [FLAC]/22 - Arthur Lyman - Malaguena.flac
               /Volumes/osec/XLDs/Arthur Lyman - Hawaiian Sunset + Bwana A (Unknown Year) [MP3 V0]/22 - Arthur Lyman - Malaguena.mp3
               /Volumes/osec/XLDs/Arthur Lyman - Hawaiian Sunset + Bwana A (Unknown Year) [MP3 320]/22 - Arthur Lyman - Malaguena.mp3

    Track gain               : -2.31 dB
    Peak                     : 0.999969
    CRC32 hash (test run)    : 757C27D7
    CRC32 hash               : 757C27D7
    CRC32 hash (skip zero)   : 4FE4F3C9
    AccurateRip v1 signature : 311E95EB
    AccurateRip v2 signature : 42CC2D32
        ->Accurately ripped (v2, confidence 15/15)
    Statistics
        Read error                           : 0
        Jitter error (maybe fixed)           : 0
        Retry sector count                   : 0
        Damaged sector count                 : 0

Track 23
    Filename : /Volumes/osec/XLDs/Arthur Lyman - Hawaiian Sunset + Bwana A (Unknown Year) [FLAC]/23 - Arthur Lyman - Vera Cruz.flac
               /Volumes/osec/XLDs/Arthur Lyman - Hawaiian Sunset + Bwana A (Unknown Year) [MP3 V0]/23 - Arthur Lyman - Vera Cruz.mp3
               /Volumes/osec/XLDs/Arthur Lyman - Hawaiian Sunset + Bwana A (Unknown Year) [MP3 320]/23 - Arthur Lyman - Vera Cruz.mp3

    Track gain               : -0.63 dB
    Peak                     : 0.739441
    CRC32 hash (test run)    : EFA8C95A
    CRC32 hash               : EFA8C95A
    CRC32 hash (skip zero)   : F87B17CF
    AccurateRip v1 signature : 4F4E621C
    AccurateRip v2 signature : 41B1D11F
        ->Accurately ripped (v2, confidence 15/15)
    Statistics
        Read error                           : 0
        Jitter error (maybe fixed)           : 0
        Retry sector count                   : 0
        Damaged sector count                 : 0

Track 24
    Filename : /Volumes/osec/XLDs/Arthur Lyman - Hawaiian Sunset + Bwana A (Unknown Year) [FLAC]/24 - Arthur Lyman - Pua Carnation.flac
               /Volumes/osec/XLDs/Arthur Lyman - Hawaiian Sunset + Bwana A (Unknown Year) [MP3 V0]/24 - Arthur Lyman - Pua Carnation.mp3
               /Volumes/osec/XLDs/Arthur Lyman - Hawaiian Sunset + Bwana A (Unknown Year) [MP3 320]/24 - Arthur Lyman - Pua Carnation.mp3

    Track gain               : 3.46 dB
    Peak                     : 0.579498
    CRC32 hash (test run)    : F51A494D
    CRC32 hash               : F51A494D
    CRC32 hash (skip zero)   : 411FEAF3
    AccurateRip v1 signature : C2597F85
    AccurateRip v2 signature : 8426DA67
        ->Accurately ripped (v2, confidence 15/15)
    Statistics
        Read error                           : 0
        Jitter error (maybe fixed)           : 0
        Retry sector count                   : 0
        Damaged sector count                 : 0

Track 25
    Filename : /Volumes/osec/XLDs/Arthur Lyman - Hawaiian Sunset + Bwana A (Unknown Year) [FLAC]/25 - Arthur Lyman - Colonel Bogey's March.flac
               /Volumes/osec/XLDs/Arthur Lyman - Hawaiian Sunset + Bwana A (Unknown Year) [MP3 V0]/25 - Arthur Lyman - Colonel Bogey's March.mp3
               /Volumes/osec/XLDs/Arthur Lyman - Hawaiian Sunset + Bwana A (Unknown Year) [MP3 320]/25 - Arthur Lyman - Colonel Bogey's March.mp3

    Track gain               : -2.33 dB
    Peak                     : 0.925690
    CRC32 hash (test run)    : FCAF5CD6
    CRC32 hash               : FCAF5CD6
    CRC32 hash (skip zero)   : 32BE358D
    AccurateRip v1 signature : B13BC10F
    AccurateRip v2 signature : 3EB91BB4
        ->Accurately ripped (v2, confidence 14/14)
    Statistics
        Read error                           : 0
        Jitter error (maybe fixed)           : 0
        Retry sector count                   : 0
        Damaged sector count                 : 0

No errors occurred

End of status report

-----BEGIN XLD SIGNATURE-----
JBWAIbmC.dN7ENzatrzxN44gK7MyJIEcGZWcW6tVpOT.T.qyLPv2DyMjLJRHcMXrj3kgErMAPyGRDsua5j6dcG2F5qQu42M_vfs1ccu
-----END XLD SIGNATURE-----

CD3
X Lossless Decoder version 20161007 (149.3)

XLD extraction logfile from 2017-03-08 16:33:42 +0100

Arthur Lyman / Legend Of Pele + Bahia

Used drive : MATSHITA BD-MLT UJ272 (revision 1.01)
Media type : Pressed CD

Ripper mode             : XLD Secure Ripper
Disable audio cache     : OK for the drive with a cache less than 1375KiB
Make use of C2 pointers : NO
Read offset correction  : 103
Max retry count         : 20
Gap status              : Analyzed, Appended (except HTOA)

TOC of the extracted CD
     Track |   Start  |  Length  | Start sector | End sector
    ---------------------------------------------------------
        1  | 00:00:00 | 03:18:46 |         0    |    14895
        2  | 03:18:46 | 02:29:23 |     14896    |    26093
        3  | 05:47:69 | 04:12:19 |     26094    |    45012
        4  | 10:00:13 | 03:12:46 |     45013    |    59458
        5  | 13:12:59 | 03:55:72 |     59459    |    77155
        6  | 17:08:56 | 01:54:00 |     77156    |    85705
        7  | 19:02:56 | 05:03:25 |     85706    |   108455
        8  | 24:06:06 | 02:39:54 |    108456    |   120434
        9  | 26:45:60 | 03:48:71 |    120435    |   137605
       10  | 30:34:56 | 03:08:70 |    137606    |   151775
       11  | 33:43:51 | 04:34:20 |    151776    |   172345
       12  | 38:17:71 | 02:17:35 |    172346    |   182655
       13  | 40:35:31 | 03:06:74 |    182656    |   196679
       14  | 43:42:30 | 02:39:32 |    196680    |   208636
       15  | 46:21:62 | 04:04:33 |    208637    |   226969
       16  | 50:26:20 | 02:56:36 |    226970    |   240205
       17  | 53:22:56 | 01:57:69 |    240206    |   249049
       18  | 55:20:50 | 02:57:15 |    249050    |   262339
       19  | 58:17:65 | 03:43:27 |    262340    |   279091
       20  | 62:01:17 | 02:58:18 |    279092    |   292459
       21  | 64:59:35 | 02:52:11 |    292460    |   305370
       22  | 67:51:46 | 02:45:47 |    305371    |   317792
       23  | 70:37:18 | 02:23:33 |    317793    |   328550
       24  | 73:00:51 | 02:40:46 |    328551    |   340596

AccurateRip Summary (DiscID: 00439622-048c5106-4711bd18)
    Track 01 : OK (v2, confidence 15/15)
    Track 02 : OK (v2, confidence 15/15)
    Track 03 : OK (v2, confidence 15/15)
    Track 04 : OK (v2, confidence 15/15)
    Track 05 : OK (v2, confidence 15/15)
    Track 06 : OK (v2, confidence 15/15)
    Track 07 : OK (v2, confidence 15/15)
    Track 08 : OK (v2, confidence 15/15)
    Track 09 : OK (v2, confidence 15/15)
    Track 10 : OK (v2, confidence 15/15)
    Track 11 : OK (v2, confidence 14/14)
    Track 12 : OK (v2, confidence 15/15)
    Track 13 : OK (v2, confidence 15/15)
    Track 14 : OK (v2, confidence 15/15)
    Track 15 : OK (v2, confidence 15/15)
    Track 16 : OK (v2, confidence 14/14)
    Track 17 : OK (v2, confidence 15/15)
    Track 18 : OK (v2, confidence 15/15)
    Track 19 : OK (v2, confidence 15/15)
    Track 20 : OK (v2, confidence 15/15)
    Track 21 : OK (v2, confidence 15/15)
    Track 22 : OK (v2, confidence 15/15)
    Track 23 : OK (v2, confidence 15/15)
    Track 24 : OK (v2, confidence 15/15)
        ->All tracks accurately ripped.

All Tracks
    Album gain               : -1.47 dB
    Peak                     : 0.999969
    Statistics
        Read error                           : 0
        Jitter error (maybe fixed)           : 0
        Retry sector count                   : 1
        Damaged sector count                 : 0

Track 01
    Filename : /Volumes/osec/XLDs/Arthur Lyman - Legend Of Pele + Bahia (1958) [FLAC]/03-01 - Arthur Lyman - Pele.flac
               /Volumes/osec/XLDs/Arthur Lyman - Legend Of Pele + Bahia (1958) [MP3 V0]/03-01 - Arthur Lyman - Pele.mp3
               /Volumes/osec/XLDs/Arthur Lyman - Legend Of Pele + Bahia (1958) [MP3 320]/03-01 - Arthur Lyman - Pele.mp3
    Pre-gap length : 00:02:00

    Track gain               : -3.10 dB
    Peak                     : 0.999969
    CRC32 hash (test run)    : B7BDBF08
    CRC32 hash               : B7BDBF08
    CRC32 hash (skip zero)   : C5D4A1E0
    AccurateRip v1 signature : 312D645E
    AccurateRip v2 signature : 4C203B8A
        ->Accurately ripped (v2, confidence 15/15)
    Statistics
        Read error                           : 0
        Jitter error (maybe fixed)           : 0
        Retry sector count                   : 0
        Damaged sector count                 : 0

Track 02
    Filename : /Volumes/osec/XLDs/Arthur Lyman - Legend Of Pele + Bahia (1958) [FLAC]/03-02 - Arthur Lyman - Fire Down Below.flac
               /Volumes/osec/XLDs/Arthur Lyman - Legend Of Pele + Bahia (1958) [MP3 V0]/03-02 - Arthur Lyman - Fire Down Below.mp3
               /Volumes/osec/XLDs/Arthur Lyman - Legend Of Pele + Bahia (1958) [MP3 320]/03-02 - Arthur Lyman - Fire Down Below.mp3

    Track gain               : -1.42 dB
    Peak                     : 0.966034
    CRC32 hash (test run)    : 33CC9C1D
    CRC32 hash               : 33CC9C1D
    CRC32 hash (skip zero)   : 133464DE
    AccurateRip v1 signature : 7D69B9EE
    AccurateRip v2 signature : 57840C32
        ->Accurately ripped (v2, confidence 15/15)
    Statistics
        Read error                           : 0
        Jitter error (maybe fixed)           : 0
        Retry sector count                   : 0
        Damaged sector count                 : 0

Track 03
    Filename : /Volumes/osec/XLDs/Arthur Lyman - Legend Of Pele + Bahia (1958) [FLAC]/03-03 - Arthur Lyman - Ye Lai Sian.flac
               /Volumes/osec/XLDs/Arthur Lyman - Legend Of Pele + Bahia (1958) [MP3 V0]/03-03 - Arthur Lyman - Ye Lai Sian.mp3
               /Volumes/osec/XLDs/Arthur Lyman - Legend Of Pele + Bahia (1958) [MP3 320]/03-03 - Arthur Lyman - Ye Lai Sian.mp3

    Track gain               : -1.96 dB
    Peak                     : 0.946533
    CRC32 hash (test run)    : 2B17D364
    CRC32 hash               : 2B17D364
    CRC32 hash (skip zero)   : 4ABEEB42
    AccurateRip v1 signature : 5AB2B1B6
    AccurateRip v2 signature : 1CD88760
        ->Accurately ripped (v2, confidence 15/15)
    Statistics
        Read error                           : 0
        Jitter error (maybe fixed)           : 0
        Retry sector count                   : 0
        Damaged sector count                 : 0

Track 04
    Filename : /Volumes/osec/XLDs/Arthur Lyman - Legend Of Pele + Bahia (1958) [FLAC]/03-04 - Arthur Lyman - Hana Pele.flac
               /Volumes/osec/XLDs/Arthur Lyman - Legend Of Pele + Bahia (1958) [MP3 V0]/03-04 - Arthur Lyman - Hana Pele.mp3
               /Volumes/osec/XLDs/Arthur Lyman - Legend Of Pele + Bahia (1958) [MP3 320]/03-04 - Arthur Lyman - Hana Pele.mp3

    Track gain               : -4.29 dB
    Peak                     : 0.987335
    CRC32 hash (test run)    : 3BC99546
    CRC32 hash               : 3BC99546
    CRC32 hash (skip zero)   : 082EC39F
    AccurateRip v1 signature : DE6F7A85
    AccurateRip v2 signature : 61D7462F
        ->Accurately ripped (v2, confidence 15/15)
    Statistics
        Read error                           : 0
        Jitter error (maybe fixed)           : 0
        Retry sector count                   : 0
        Damaged sector count                 : 0

Track 05
    Filename : /Volumes/osec/XLDs/Arthur Lyman - Legend Of Pele + Bahia (1958) [FLAC]/03-05 - Arthur Lyman - Hana Maui.flac
               /Volumes/osec/XLDs/Arthur Lyman - Legend Of Pele + Bahia (1958) [MP3 V0]/03-05 - Arthur Lyman - Hana Maui.mp3
               /Volumes/osec/XLDs/Arthur Lyman - Legend Of Pele + Bahia (1958) [MP3 320]/03-05 - Arthur Lyman - Hana Maui.mp3

    Track gain               : -4.23 dB
    Peak                     : 0.966034
    CRC32 hash (test run)    : 214A509E
    CRC32 hash               : 214A509E
    CRC32 hash (skip zero)   : DE91CFC5
    AccurateRip v1 signature : 4ED97065
    AccurateRip v2 signature : 452D2B5C
        ->Accurately ripped (v2, confidence 15/15)
    Statistics
        Read error                           : 0
        Jitter error (maybe fixed)           : 0
        Retry sector count                   : 0
        Damaged sector count                 : 0

Track 06
    Filename : /Volumes/osec/XLDs/Arthur Lyman - Legend Of Pele + Bahia (1958) [FLAC]/03-06 - Arthur Lyman - Cumana.flac
               /Volumes/osec/XLDs/Arthur Lyman - Legend Of Pele + Bahia (1958) [MP3 V0]/03-06 - Arthur Lyman - Cumana.mp3
               /Volumes/osec/XLDs/Arthur Lyman - Legend Of Pele + Bahia (1958) [MP3 320]/03-06 - Arthur Lyman - Cumana.mp3

    Track gain               : 0.07 dB
    Peak                     : 0.782745
    CRC32 hash (test run)    : 4E9B9531
    CRC32 hash               : 4E9B9531
    CRC32 hash (skip zero)   : 9266FDC1
    AccurateRip v1 signature : 293FB985
    AccurateRip v2 signature : B58C6D52
        ->Accurately ripped (v2, confidence 15/15)
    Statistics
        Read error                           : 0
        Jitter error (maybe fixed)           : 0
        Retry sector count                   : 0
        Damaged sector count                 : 0

Track 07
    Filename : /Volumes/osec/XLDs/Arthur Lyman - Legend Of Pele + Bahia (1958) [FLAC]/03-07 - Arthur Lyman - Scheherezade.flac
               /Volumes/osec/XLDs/Arthur Lyman - Legend Of Pele + Bahia (1958) [MP3 V0]/03-07 - Arthur Lyman - Scheherezade.mp3
               /Volumes/osec/XLDs/Arthur Lyman - Legend Of Pele + Bahia (1958) [MP3 320]/03-07 - Arthur Lyman - Scheherezade.mp3

    Track gain               : -0.34 dB
    Peak                     : 0.966034
    CRC32 hash (test run)    : ABE81EA0
    CRC32 hash               : ABE81EA0
    CRC32 hash (skip zero)   : 9D77D99B
    AccurateRip v1 signature : 34711605
    AccurateRip v2 signature : 70D7A3E0
Содержание индексной карты (.CUE)
CD1
TITLE "Eight Classic Albums CD1"
PERFORMER "Arthur Lyman"
REM GENRE "Easy Listening"
REM DATE "2012"
REM DISCID 6C120F18
REM REPLAYGAIN_ALBUM_GAIN -0.76 dB
REM REPLAYGAIN_ALBUM_PEAK 0.999969
FILE "01 - Leis of Jazz.flac" WAVE
  TRACK 01 AUDIO
    TITLE "Leis of Jazz"
    REM REPLAYGAIN_TRACK_GAIN -1.40 dB
    REM REPLAYGAIN_TRACK_PEAK 0.874298
    INDEX 01 00:00:00
FILE "02 - Trigger Fantasy.flac" WAVE
  TRACK 02 AUDIO
    TITLE "Trigger Fantasy"
    REM REPLAYGAIN_TRACK_GAIN 1.03 dB
    REM REPLAYGAIN_TRACK_PEAK 0.880005
    INDEX 01 00:00:00
FILE "03 - The Lady Is a Tramp.flac" WAVE
  TRACK 03 AUDIO
    TITLE "The Lady Is a Tramp"
    REM REPLAYGAIN_TRACK_GAIN -1.97 dB
    REM REPLAYGAIN_TRACK_PEAK 0.967133
    INDEX 01 00:00:00
FILE "04 - Body and Soul.flac" WAVE
  TRACK 04 AUDIO
    TITLE "Body and Soul"
    REM REPLAYGAIN_TRACK_GAIN -0.42 dB
    REM REPLAYGAIN_TRACK_PEAK 0.971008
    INDEX 01 00:00:00
FILE "05 - Gypsy in My Soul.flac" WAVE
  TRACK 05 AUDIO
    TITLE "Gypsy in My Soul"
    REM REPLAYGAIN_TRACK_GAIN -1.35 dB
    REM REPLAYGAIN_TRACK_PEAK 0.988129
    INDEX 01 00:00:00
FILE "06 - Lullaby of the Leaves.flac" WAVE
  TRACK 06 AUDIO
    TITLE "Lullaby of the Leaves"
    REM REPLAYGAIN_TRACK_GAIN -0.04 dB
    REM REPLAYGAIN_TRACK_PEAK 0.999969
    INDEX 01 00:00:00
FILE "07 - On the Street Where You Live.flac" WAVE
  TRACK 07 AUDIO
    TITLE "On the Street Where You Live"
    REM REPLAYGAIN_TRACK_GAIN -2.09 dB
    REM REPLAYGAIN_TRACK_PEAK 0.957916
    INDEX 01 00:00:00
FILE "08 - My Funny Valentine.flac" WAVE
  TRACK 08 AUDIO
    TITLE "My Funny Valentine"
    REM REPLAYGAIN_TRACK_GAIN -0.12 dB
    REM REPLAYGAIN_TRACK_PEAK 0.895050
    INDEX 01 00:00:00
FILE "09 - The Way You Look Tonight.flac" WAVE
  TRACK 09 AUDIO
    TITLE "The Way You Look Tonight"
    REM REPLAYGAIN_TRACK_GAIN -3.10 dB
    REM REPLAYGAIN_TRACK_PEAK 0.961761
    INDEX 01 00:00:00
FILE "10 - How High the Moon.flac" WAVE
  TRACK 10 AUDIO
    TITLE "How High the Moon"
    REM REPLAYGAIN_TRACK_GAIN -2.62 dB
    REM REPLAYGAIN_TRACK_PEAK 0.983917
    INDEX 01 00:00:00
FILE "11 - Lullaby of Birdland.flac" WAVE
  TRACK 11 AUDIO
    TITLE "Lullaby of Birdland"
    REM REPLAYGAIN_TRACK_GAIN -2.61 dB
    REM REPLAYGAIN_TRACK_PEAK 0.989105
    INDEX 01 00:00:00
FILE "12 - Aloha Oe.flac" WAVE
  TRACK 12 AUDIO
    TITLE "Aloha Oe"
    REM REPLAYGAIN_TRACK_GAIN 0.78 dB
    REM REPLAYGAIN_TRACK_PEAK 0.744415
    INDEX 01 00:00:00
FILE "13 - Taboo.flac" WAVE
  TRACK 13 AUDIO
    TITLE "Taboo"
    REM REPLAYGAIN_TRACK_GAIN -1.05 dB
    REM REPLAYGAIN_TRACK_PEAK 0.968262
    INDEX 01 00:00:00
FILE "14 - Love Song of Kalua.flac" WAVE
  TRACK 14 AUDIO
    TITLE "Love Song of Kalua"
    REM REPLAYGAIN_TRACK_GAIN 1.79 dB
    REM REPLAYGAIN_TRACK_PEAK 0.658813
    INDEX 01 00:00:00
FILE "15 - Ringo Oiwake.flac" WAVE
  TRACK 15 AUDIO
    TITLE "Ringo Oiwake"
    REM REPLAYGAIN_TRACK_GAIN -0.37 dB
    REM REPLAYGAIN_TRACK_PEAK 0.851318
    INDEX 01 00:00:00
FILE "16 - Sea Breeze.flac" WAVE
  TRACK 16 AUDIO
    TITLE "Sea Breeze"
    REM REPLAYGAIN_TRACK_GAIN 3.54 dB
    REM REPLAYGAIN_TRACK_PEAK 0.636993
    INDEX 01 00:00:00
FILE "17 - Misirlou.flac" WAVE
  TRACK 17 AUDIO
    TITLE "Misirlou"
    REM REPLAYGAIN_TRACK_GAIN -1.30 dB
    REM REPLAYGAIN_TRACK_PEAK 0.970001
    INDEX 01 00:00:00
FILE "18 - China Clipper.flac" WAVE
  TRACK 18 AUDIO
    TITLE "China Clipper"
    REM REPLAYGAIN_TRACK_GAIN 1.09 dB
    REM REPLAYGAIN_TRACK_PEAK 0.657074
    INDEX 01 00:00:00
FILE "19 - Sim Sim.flac" WAVE
  TRACK 19 AUDIO
    TITLE "Sim Sim"
    REM REPLAYGAIN_TRACK_GAIN 0.83 dB
    REM REPLAYGAIN_TRACK_PEAK 0.838287
    INDEX 01 00:00:00
FILE "20 - Katsumi Love Theme.flac" WAVE
  TRACK 20 AUDIO
    TITLE "Katsumi Love Theme"
    REM REPLAYGAIN_TRACK_GAIN 0.73 dB
    REM REPLAYGAIN_TRACK_PEAK 0.701385
    INDEX 01 00:00:00
FILE "21 - Caravan.flac" WAVE
  TRACK 21 AUDIO
    TITLE "Caravan"
    REM REPLAYGAIN_TRACK_GAIN 1.46 dB
    REM REPLAYGAIN_TRACK_PEAK 0.747131
    INDEX 01 00:00:00
FILE "22 - Akaka Falls.flac" WAVE
  TRACK 22 AUDIO
    TITLE "Akaka Falls"
    REM REPLAYGAIN_TRACK_GAIN 1.38 dB
    REM REPLAYGAIN_TRACK_PEAK 0.760895
    INDEX 01 00:00:00
FILE "23 - Dahil Sayo.flac" WAVE
  TRACK 23 AUDIO
    TITLE "Dahil Sayo"
    REM REPLAYGAIN_TRACK_GAIN 2.36 dB
    REM REPLAYGAIN_TRACK_PEAK 0.951843
    INDEX 01 00:00:00
FILE "24 - Hilo March.flac" WAVE
  TRACK 24 AUDIO
    TITLE "Hilo March"
    REM REPLAYGAIN_TRACK_GAIN 0.52 dB
    REM REPLAYGAIN_TRACK_PEAK 0.753113
    INDEX 01 00:00:00

CD2
TITLE "Eight Classic Albums CD2"
PERFORMER "Arthur Lyman"
REM GENRE "Easy Listening"
REM DATE "2012"
REM DISCID 7210F119
REM REPLAYGAIN_ALBUM_GAIN 0.95 dB
REM REPLAYGAIN_ALBUM_PEAK 0.999969
FILE "01 - Hawaiian War Chant.flac" WAVE
  TRACK 01 AUDIO
    TITLE "Hawaiian War Chant"
    REM REPLAYGAIN_TRACK_GAIN 3.39 dB
    REM REPLAYGAIN_TRACK_PEAK 0.999969
    INDEX 01 00:00:00
FILE "02 - Sweet Leilani.flac" WAVE
  TRACK 02 AUDIO
    TITLE "Sweet Leilani"
    REM REPLAYGAIN_TRACK_GAIN 3.44 dB
    REM REPLAYGAIN_TRACK_PEAK 0.609406
    INDEX 01 00:00:00
FILE "03 - Imi Au Ia Oe (King's Serenade).flac" WAVE
  TRACK 03 AUDIO
    TITLE "Imi Au Ia Oe (King's Serenade)"
    REM REPLAYGAIN_TRACK_GAIN 1.20 dB
    REM REPLAYGAIN_TRACK_PEAK 0.516937
    INDEX 01 00:00:00
FILE "04 - My Tane.flac" WAVE
  TRACK 04 AUDIO
    TITLE "My Tane"
    REM REPLAYGAIN_TRACK_GAIN 3.40 dB
    REM REPLAYGAIN_TRACK_PEAK 0.641388
    INDEX 01 00:00:00
FILE "05 - Whispering Reef Lullaby.flac" WAVE
  TRACK 05 AUDIO
    TITLE "Whispering Reef Lullaby"
    REM REPLAYGAIN_TRACK_GAIN 10.39 dB
    REM REPLAYGAIN_TRACK_PEAK 0.365417
    INDEX 01 00:00:00
FILE "06 - Song of the Islands (Na Lei O Hawaii).flac" WAVE
  TRACK 06 AUDIO
    TITLE "Song of the Islands (Na Lei O Hawaii)"
    REM REPLAYGAIN_TRACK_GAIN 4.68 dB
    REM REPLAYGAIN_TRACK_PEAK 0.651367
    INDEX 01 00:00:00
FILE "07 - Hilawe.flac" WAVE
  TRACK 07 AUDIO
    TITLE "Hilawe"
    REM REPLAYGAIN_TRACK_GAIN 2.12 dB
    REM REPLAYGAIN_TRACK_PEAK 0.704926
    INDEX 01 00:00:00
FILE "08 - Isle of Golden Dreams.flac" WAVE
  TRACK 08 AUDIO
    TITLE "Isle of Golden Dreams"
    REM REPLAYGAIN_TRACK_GAIN 2.86 dB
    REM REPLAYGAIN_TRACK_PEAK 0.800934
    INDEX 01 00:00:00
FILE "09 - Mapuana.flac" WAVE
  TRACK 09 AUDIO
    TITLE "Mapuana"
    REM REPLAYGAIN_TRACK_GAIN 1.73 dB
    REM REPLAYGAIN_TRACK_PEAK 0.765900
    INDEX 01 00:00:00
FILE "10 - Waipio.flac" WAVE
  TRACK 10 AUDIO
    TITLE "Waipio"
    REM REPLAYGAIN_TRACK_GAIN 4.18 dB
    REM REPLAYGAIN_TRACK_PEAK 0.607544
    INDEX 01 00:00:00
FILE "11 - Kawohikukupulani.flac" WAVE
  TRACK 11 AUDIO
    TITLE "Kawohikukupulani"
    REM REPLAYGAIN_TRACK_GAIN 1.37 dB
    REM REPLAYGAIN_TRACK_PEAK 0.902222
    INDEX 01 00:00:00
FILE "12 - Ke Kali Nei Au.flac" WAVE
  TRACK 12 AUDIO
    TITLE "Ke Kali Nei Au"
    REM REPLAYGAIN_TRACK_GAIN 3.21 dB
    REM REPLAYGAIN_TRACK_PEAK 0.698364
    INDEX 01 00:00:00
FILE "13 - Harbor Lights.flac" WAVE
  TRACK 13 AUDIO
    TITLE "Harbor Lights"
    REM REPLAYGAIN_TRACK_GAIN 6.89 dB
    REM REPLAYGAIN_TRACK_PEAK 0.662231
    INDEX 01 00:00:00
FILE "14 - Bwana A.flac" WAVE
  TRACK 14 AUDIO
    TITLE "Bwana A"
    REM REPLAYGAIN_TRACK_GAIN -0.17 dB
    REM REPLAYGAIN_TRACK_PEAK 0.967133
    INDEX 01 00:00:00
FILE "15 - South Pacific Moonlight.flac" WAVE
  TRACK 15 AUDIO
    TITLE "South Pacific Moonlight"
    REM REPLAYGAIN_TRACK_GAIN 1.60 dB
    REM REPLAYGAIN_TRACK_PEAK 0.767578
    INDEX 01 00:00:00
FILE "16 - Moon over a Ruined Castle.flac" WAVE
  TRACK 16 AUDIO
    TITLE "Moon over a Ruined Castle"
    REM REPLAYGAIN_TRACK_GAIN 3.82 dB
    REM REPLAYGAIN_TRACK_PEAK 0.755981
    INDEX 01 00:00:00
FILE "17 - Waikiki Serenade.flac" WAVE
  TRACK 17 AUDIO
    TITLE "Waikiki Serenade"
    REM REPLAYGAIN_TRACK_GAIN 0.32 dB
    REM REPLAYGAIN_TRACK_PEAK 0.879547
    INDEX 01 00:00:00
FILE "18 - La Paloma.flac" WAVE
  TRACK 18 AUDIO
    TITLE "La Paloma"
    REM REPLAYGAIN_TRACK_GAIN -0.80 dB
    REM REPLAYGAIN_TRACK_PEAK 0.889404
    INDEX 01 00:00:00
FILE "19 - Otome San.flac" WAVE
  TRACK 19 AUDIO
    TITLE "Otome San"
    REM REPLAYGAIN_TRACK_GAIN -4.24 dB
    REM REPLAYGAIN_TRACK_PEAK 0.870728
    INDEX 01 00:00:00
FILE "20 - Canton Rose.flac" WAVE
  TRACK 20 AUDIO
    TITLE "Canton Rose"
    REM REPLAYGAIN_TRACK_GAIN -0.92 dB
    REM REPLAYGAIN_TRACK_PEAK 0.926422
    INDEX 01 00:00:00
FILE "21 - Blue Sands.flac" WAVE
  TRACK 21 AUDIO
    TITLE "Blue Sands"
    REM REPLAYGAIN_TRACK_GAIN 5.15 dB
    REM REPLAYGAIN_TRACK_PEAK 0.851471
    INDEX 01 00:00:00
FILE "22 - Malaguena.flac" WAVE
  TRACK 22 AUDIO
    TITLE "Malaguena"
    REM REPLAYGAIN_TRACK_GAIN -2.31 dB
    REM REPLAYGAIN_TRACK_PEAK 0.999969
    INDEX 01 00:00:00
FILE "23 - Vera Cruz.flac" WAVE
  TRACK 23 AUDIO
    TITLE "Vera Cruz"
    REM REPLAYGAIN_TRACK_GAIN -0.63 dB
    REM REPLAYGAIN_TRACK_PEAK 0.739441
    INDEX 01 00:00:00
FILE "24 - Pua Carnation.flac" WAVE
  TRACK 24 AUDIO
    TITLE "Pua Carnation"
    REM REPLAYGAIN_TRACK_GAIN 3.46 dB
    REM REPLAYGAIN_TRACK_PEAK 0.579498
    INDEX 01 00:00:00
FILE "25 - Colonel Bogey's March.flac" WAVE
  TRACK 25 AUDIO
    TITLE "Colonel Bogey's March"
    REM REPLAYGAIN_TRACK_GAIN -2.33 dB
    REM REPLAYGAIN_TRACK_PEAK 0.925690
    INDEX 01 00:00:00

CD3
TITLE "Eight Classic Albums CD3"
PERFORMER "Arthur Lyman"
REM GENRE "Easy Listening"
REM DATE "2012"
REM DISCID 4711BD18
REM REPLAYGAIN_ALBUM_GAIN -1.47 dB
REM REPLAYGAIN_ALBUM_PEAK 0.999969
FILE "01 - Pele.flac" WAVE
  TRACK 01 AUDIO
    TITLE "Pele"
    REM REPLAYGAIN_TRACK_GAIN -3.10 dB
    REM REPLAYGAIN_TRACK_PEAK 0.999969
    INDEX 01 00:00:00
FILE "02 - Fire Down Below.flac" WAVE
  TRACK 02 AUDIO
    TITLE "Fire Down Below"
    REM REPLAYGAIN_TRACK_GAIN -1.42 dB
    REM REPLAYGAIN_TRACK_PEAK 0.966034
    INDEX 01 00:00:00
FILE "03 - Ye Lai Sian.flac" WAVE
  TRACK 03 AUDIO
    TITLE "Ye Lai Sian"
    REM REPLAYGAIN_TRACK_GAIN -1.96 dB
    REM REPLAYGAIN_TRACK_PEAK 0.946533
    INDEX 01 00:00:00
FILE "04 - Hana Pele.flac" WAVE
  TRACK 04 AUDIO
    TITLE "Hana Pele"
    REM REPLAYGAIN_TRACK_GAIN -4.29 dB
    REM REPLAYGAIN_TRACK_PEAK 0.987335
    INDEX 01 00:00:00
FILE "05 - Hana Maui.flac" WAVE
  TRACK 05 AUDIO
    TITLE "Hana Maui"
    REM REPLAYGAIN_TRACK_GAIN -4.23 dB
    REM REPLAYGAIN_TRACK_PEAK 0.966034
    INDEX 01 00:00:00
FILE "06 - Cumana.flac" WAVE
  TRACK 06 AUDIO
    TITLE "Cumana"
    REM REPLAYGAIN_TRACK_GAIN 0.07 dB
    REM REPLAYGAIN_TRACK_PEAK 0.782745
    INDEX 01 00:00:00
FILE "07 - Scheherezade.flac" WAVE
  TRACK 07 AUDIO
    TITLE "Scheherezade"
    REM REPLAYGAIN_TRACK_GAIN -0.34 dB
    REM REPLAYGAIN_TRACK_PEAK 0.966034
    INDEX 01 00:00:00
FILE "08 - Cubana Chant.flac" WAVE
  TRACK 08 AUDIO
    TITLE "Cubana Chant"
    REM REPLAYGAIN_TRACK_GAIN 3.72 dB
    REM REPLAYGAIN_TRACK_PEAK 0.875000
    INDEX 01 00:00:00
FILE "09 - Magic Island.flac" WAVE
  TRACK 09 AUDIO
    TITLE "Magic Island"
    REM REPLAYGAIN_TRACK_GAIN 0.66 dB
    REM REPLAYGAIN_TRACK_PEAK 0.999969
    INDEX 01 00:00:00
FILE "10 - Tropical (Kinkajou).flac" WAVE
  TRACK 10 AUDIO
    TITLE "Tropical (Kinkajou)"
    REM REPLAYGAIN_TRACK_GAIN -2.30 dB
    REM REPLAYGAIN_TRACK_PEAK 0.966034
    INDEX 01 00:00:00
FILE "11 - Fascination.flac" WAVE
  TRACK 11 AUDIO
    TITLE "Fascination"
    REM REPLAYGAIN_TRACK_GAIN 2.39 dB
    REM REPLAYGAIN_TRACK_PEAK 0.999969
    INDEX 01 00:00:00
FILE "12 - 76 Trombones.flac" WAVE
  TRACK 12 AUDIO
    TITLE "76 Trombones"
    REM REPLAYGAIN_TRACK_GAIN -3.31 dB
    REM REPLAYGAIN_TRACK_PEAK 0.966034
    INDEX 01 00:00:00
FILE "13 - Bahia.flac" WAVE
  TRACK 13 AUDIO
    TITLE "Bahia"
    REM REPLAYGAIN_TRACK_GAIN -0.35 dB
    REM REPLAYGAIN_TRACK_PEAK 0.966034
    INDEX 01 00:00:00
FILE "14 - Jungle Jalopy.flac" WAVE
  TRACK 14 AUDIO
    TITLE "Jungle Jalopy"
    REM REPLAYGAIN_TRACK_GAIN 4.29 dB
    REM REPLAYGAIN_TRACK_PEAK 0.966003
    INDEX 01 00:00:00
FILE "15 - Legend of the Rain.flac" WAVE
  TRACK 15 AUDIO
    TITLE "Legend of the Rain"
    REM REPLAYGAIN_TRACK_GAIN 0.71 dB
    REM REPLAYGAIN_TRACK_PEAK 0.973938
    INDEX 01 00:00:00
FILE "16 - Bamboo.flac" WAVE
  TRACK 16 AUDIO
    TITLE "Bamboo"
    REM REPLAYGAIN_TRACK_GAIN -0.30 dB
    REM REPLAYGAIN_TRACK_PEAK 0.966034
    INDEX 01 00:00:00
FILE "17 - Return to Me.flac" WAVE
  TRACK 17 AUDIO
    TITLE "Return to Me"
    REM REPLAYGAIN_TRACK_GAIN -1.87 dB
    REM REPLAYGAIN_TRACK_PEAK 0.966034
    INDEX 01 00:00:00
FILE "18 - Caribbean Nights.flac" WAVE
  TRACK 18 AUDIO
    TITLE "Caribbean Nights"
    REM REPLAYGAIN_TRACK_GAIN 1.45 dB
    REM REPLAYGAIN_TRACK_PEAK 0.999969
    INDEX 01 00:00:00
FILE "19 - Quiet Village.flac" WAVE
  TRACK 19 AUDIO
    TITLE "Quiet Village"
    REM REPLAYGAIN_TRACK_GAIN -0.65 dB
    REM REPLAYGAIN_TRACK_PEAK 0.966034
    INDEX 01 00:00:00
FILE "20 - Tropical.flac" WAVE
  TRACK 20 AUDIO
    TITLE "Tropical"
    REM REPLAYGAIN_TRACK_GAIN 3.13 dB
    REM REPLAYGAIN_TRACK_PEAK 0.966034
    INDEX 01 00:00:00
FILE "21 - Happy Voodoo.flac" WAVE
  TRACK 21 AUDIO
    TITLE "Happy Voodoo"
    REM REPLAYGAIN_TRACK_GAIN -2.60 dB
    REM REPLAYGAIN_TRACK_PEAK 0.966034
    INDEX 01 00:00:00
FILE "22 - Busy Port.flac" WAVE
  TRACK 22 AUDIO
    TITLE "Busy Port"
    REM REPLAYGAIN_TRACK_GAIN -2.71 dB
    REM REPLAYGAIN_TRACK_PEAK 0.966034
    INDEX 01 00:00:00
FILE "23 - Beyond the Reef.flac" WAVE
  TRACK 23 AUDIO
    TITLE "Beyond the Reef"
    REM REPLAYGAIN_TRACK_GAIN 5.31 dB
    REM REPLAYGAIN_TRACK_PEAK 0.489380
    INDEX 01 00:00:00
FILE "24 - Maui Chimes.flac" WAVE
  TRACK 24 AUDIO
    TITLE "Maui Chimes"
    REM REPLAYGAIN_TRACK_GAIN -3.70 dB
    REM REPLAYGAIN_TRACK_PEAK 0.966034
    INDEX 01 00:00:00
Лог проверки качества
CD1
[CUETools log; Date: 31.01.2019 17:58:16; Version: 2.1.6]
[CTDB TOCID: ynNlsWie8hObzJYpmwbDfDqbquE-] found.
Track | CTDB Status
  1   | (11/11) Accurately ripped
  2   | (11/11) Accurately ripped
  3   | (11/11) Accurately ripped
  4   | (11/11) Accurately ripped
  5   | (11/11) Accurately ripped
  6   | (11/11) Accurately ripped
  7   | ( 8/11) Accurately ripped
  8   | (11/11) Accurately ripped
  9   | (11/11) Accurately ripped
 10   | (11/11) Accurately ripped
 11   | (11/11) Accurately ripped
 12   | (11/11) Accurately ripped
 13   | (11/11) Accurately ripped
 14   | (11/11) Accurately ripped
 15   | (11/11) Accurately ripped
 16   | (11/11) Accurately ripped
 17   | (11/11) Accurately ripped
 18   | (11/11) Accurately ripped
 19   | (11/11) Accurately ripped
 20   | (11/11) Accurately ripped
 21   | (11/11) Accurately ripped
 22   | (11/11) Accurately ripped
 23   | (11/11) Accurately ripped
 24   | (11/11) Accurately ripped
[AccurateRip ID: 0046730e-04bb6861-6c120f18] found.
Track   [  CRC   |   V2   ] Status
 01     [de39f16c|c3fc4d12] (00+18/18) Accurately ripped
 02     [3a1ca255|41f7c360] (00+18/18) Accurately ripped
 03     [c5f520bb|85a7fc53] (00+18/18) Accurately ripped
 04     [b01c90f5|62c55086] (00+18/18) Accurately ripped
 05     [5f8da9ae|e901daf1] (00+18/18) Accurately ripped
 06     [c7a8329a|57791938] (00+18/18) Accurately ripped
 07     [474f8690|029a83cf] (00+16/16) Accurately ripped
 08     [0726275f|3e94c7bb] (00+18/18) Accurately ripped
 09     [ee0d7cd8|3f3ea64c] (00+17/17) Accurately ripped
 10     [534848e1|56c1618c] (00+18/18) Accurately ripped
 11     [a508b439|580264e3] (00+18/18) Accurately ripped
 12     [7136b7ea|f6e398fa] (00+17/17) Accurately ripped
 13     [80856400|4580b60c] (00+18/18) Accurately ripped
 14     [b71b67e7|0e4a2ee5] (00+17/17) Accurately ripped
 15     [efd0735c|90f1d857] (00+18/18) Accurately ripped
 16     [446269dd|6c3d5434] (00+18/18) Accurately ripped
 17     [0be41d5e|e630e264] (00+18/18) Accurately ripped
 18     [0e2c7ce9|9e449bb0] (00+18/18) Accurately ripped
 19     [da3b2bf9|1ce92ed1] (00+18/18) Accurately ripped
 20     [68b10b30|794dab4c] (00+17/17) Accurately ripped
 21     [095b4486|5fbd362d] (00+18/18) Accurately ripped
 22     [5f39bd01|8c17ae19] (00+18/18) Accurately ripped
 23     [aee7204a|319a0fdb] (00+18/18) Accurately ripped
 24     [52d73560|660101a2] (00+18/18) Accurately ripped

Track Peak [ CRC32  ] [W/O NULL]
 --   99,9 [BEF10188] [832EEE4F]
 01   87,4 [863B9A4D] [06BCA2BB]
 02   88,0 [DA8F3E98] [51B5ECE6]
 03   96,7 [1FEB7934] [EE2186D4]
 04   97,1 [52D04757] [3749F02C]
 05   98,8 [3663BD72] [1BF8C482]
 06   99,9 [19D5E258] [6003E893]
 07   95,7 [6A8A31CC] [882D4CA0]
 08   89,5 [313A7CE2] [E8874819]
 09   96,1 [C469DC6E] [24639B98]
 10   98,3 [11C45742] [9D922D9C]
 11   98,9 [5352D229] [DE81E509]
 12   74,4 [1EF3AE85] [2BA6D671]
 13   96,8 [09EEB726] [764A041D]
 14   65,8 [F19C8E0A] [6D4A5D2A]
 15   85,1 [994EEE7F] [48A06FA5]
 16   63,6 [33F9D601] [DC1E9E85]
 17   97,0 [144B3995] [35BCD7AA]
 18   65,7 [CB8C4708] [FB68523B]
 19   83,8 [C92A6E21] [978495F8]
 20   70,1 [39FE54A7] [DA1E91F6]
 21   74,7 [B18FFB0A] [E52BCE91]
 22   76,0 [0F4278A9] [BA1A7CE8]
 23   95,1 [53E2EA45] [433B72CC]
 24   75,3 [8779567F] [8F1D1739]

CD2
[CUETools log; Date: 31.01.2019 17:58:22; Version: 2.1.6]
[CTDB TOCID: j9qvDMPA1VfF.guc59Rjz4RxBww-] found.
Track | CTDB Status
  1   | (9/9) Accurately ripped
  2   | (9/9) Accurately ripped
  3   | (9/9) Accurately ripped
  4   | (8/9) Accurately ripped
  5   | (9/9) Accurately ripped
  6   | (9/9) Accurately ripped
  7   | (9/9) Accurately ripped
  8   | (8/9) Accurately ripped
  9   | (9/9) Accurately ripped
 10   | (9/9) Accurately ripped
 11   | (9/9) Accurately ripped
 12   | (9/9) Accurately ripped
 13   | (9/9) Accurately ripped
 14   | (9/9) Accurately ripped
 15   | (9/9) Accurately ripped
 16   | (9/9) Accurately ripped
 17   | (9/9) Accurately ripped
 18   | (9/9) Accurately ripped
 19   | (9/9) Accurately ripped
 20   | (9/9) Accurately ripped
 21   | (9/9) Accurately ripped
 22   | (9/9) Accurately ripped
 23   | (9/9) Accurately ripped
 24   | (9/9) Accurately ripped
 25   | (9/9) Accurately ripped
[AccurateRip ID: 003ca0ff-0454b2fa-7210f119] found.
Track   [  CRC   |   V2   ] Status
 01     [fb9e22d8|f5491a68] (00+17/17) Accurately ripped
 02     [8c93253f|d2596089] (00+17/17) Accurately ripped
 03     [17f78373|ebc3259e] (00+17/17) Accurately ripped
 04     [5d0e8600|ba08b028] (00+16/16) Accurately ripped
 05     [b787a2cf|3ca2b36d] (00+17/17) Accurately ripped
 06     [8bd50710|79f4784f] (00+17/17) Accurately ripped
 07     [588dd825|244092e9] (00+17/17) Accurately ripped
 08     [310d71c3|55244184] (00+16/16) Accurately ripped
 09     [03c02246|1d63e8fc] (00+17/17) Accurately ripped
 10     [aba77b89|27de971e] (00+17/17) Accurately ripped
 11     [e90b28f1|684c3b23] (00+17/17) Accurately ripped
 12     [156af5eb|e20d4609] (00+17/17) Accurately ripped
 13     [5a687181|5515f2a5] (00+17/17) Accurately ripped
 14     [b0363c41|0452114f] (00+17/17) Accurately ripped
 15     [aae17b05|ee1ae8cd] (00+17/17) Accurately ripped
 16     [1acd3645|c789b233] (00+17/17) Accurately ripped
 17     [40ef69c4|75f6b4e0] (00+17/17) Accurately ripped
 18     [7892e316|04933beb] (00+17/17) Accurately ripped
 19     [627599af|0e12acb8] (00+17/17) Accurately ripped
 20     [ae9b3631|ab1384be] (00+17/17) Accurately ripped
 21     [d9e155c8|95a2a8b6] (00+17/17) Accurately ripped
 22     [311e95eb|42cc2d32] (00+17/17) Accurately ripped
 23     [4f4e621c|41b1d11f] (00+17/17) Accurately ripped
 24     [c2597f85|8426da67] (00+17/17) Accurately ripped
 25     [b13bc10f|3eb91bb4] (00+16/16) Accurately ripped

Track Peak [ CRC32  ] [W/O NULL]
 --  100,0 [13F9A3C7] [52F4EC61]
 01   99,9 [4EE74FB4] [E2FAEE1D]
 02   60,9 [984B9BDD] [4FD5543D]
 03   51,6 [6CFE14ED] [21EC16C5]
 04   64,1 [3EFAEA40] [6457752D]
 05   36,5 [D231138F] [B9169689]
 06   65,1 [F82A3BAC] [E6258C05]
 07   70,4 [EA0924E2] [BCD56E24]
 08   80,0 [2E0121F2] [D6C41D32]
 09   76,5 [36BC5A78] [0E0D8FC9]
 10   60,7 [9741A90C] [5DA5F631]
 11   90,2 [BFEAE877] [2FF2A01B]
 12   69,8 [C4E5013E] [B59C857A]
 13   66,2 [DEED9B18] [83FF1F61]
 14   96,7 [4ECEB432] [7A8C33CC]
 15   76,7 [C55F73E0] [A9881647]
 16   75,5 [420C29C4] [121DB71D]
 17   87,9 [1147DF52] [A545C515]
 18   88,9 [0BCDE862] [B9F313F2]
 19   87,0 [DF932982] [04EA8A23]
 20   92,6 [23CC8A9D] [68DB2D4C]
 21   85,1 [2DC6E170] [37302EEC]
 22  100,0 [757C27D7] [4FE4F3C9]
 23   73,9 [EFA8C95A] [F87B17CF]
 24   57,9 [F51A494D] [411FEAF3]
 25   92,5 [FCAF5CD6] [32BE358D]

CD3
[CUETools log; Date: 31.01.2019 17:58:28; Version: 2.1.6]
[CTDB TOCID: Y31IVGCm1G86sK_0zTIPzbh9KqY-] found.
Track | CTDB Status
  1   | (11/11) Accurately ripped
  2   | (11/11) Accurately ripped
  3   | (11/11) Accurately ripped
  4   | (11/11) Accurately ripped
  5   | (11/11) Accurately ripped
  6   | (11/11) Accurately ripped
  7   | (11/11) Accurately ripped
  8   | (11/11) Accurately ripped
  9   | (11/11) Accurately ripped
 10   | (11/11) Accurately ripped
 11   | (11/11) Accurately ripped
 12   | (11/11) Accurately ripped
 13   | (11/11) Accurately ripped
 14   | (11/11) Accurately ripped
 15   | (11/11) Accurately ripped
 16   | (11/11) Accurately ripped
 17   | (11/11) Accurately ripped
 18   | (11/11) Accurately ripped
 19   | (11/11) Accurately ripped
 20   | (11/11) Accurately ripped
 21   | (11/11) Accurately ripped
 22   | (11/11) Accurately ripped
 23   | (11/11) Accurately ripped
 24   | (11/11) Accurately ripped
[AccurateRip ID: 00439622-048c5106-4711bd18] found.
Track   [  CRC   |   V2   ] Status
 01     [312d645e|4c203b8a] (00+17/17) Accurately ripped
 02     [7d69b9ee|57840c32] (00+17/17) Accurately ripped
 03     [5ab2b1b6|1cd88760] (00+17/17) Accurately ripped
 04     [de6f7a85|61d7462f] (00+17/17) Accurately ripped
 05     [4ed97065|452d2b5c] (00+17/17) Accurately ripped
 06     [293fb985|b58c6d52] (00+17/17) Accurately ripped
 07     [34711605|70d7a3e0] (00+17/17) Accurately ripped
 08     [8a35deae|ea5f6218] (00+17/17) Accurately ripped
 09     [5f927ee9|b0453a0b] (00+17/17) Accurately ripped
 10     [9640ad77|843b4040] (00+17/17) Accurately ripped
 11     [c50e4b52|b01507eb] (00+16/16) Accurately ripped
 12     [8a308781|643680be] (00+17/17) Accurately ripped
 13     [484b2d9a|de43e332] (00+17/17) Accurately ripped
 14     [4b45a7bd|7810b3e1] (00+17/17) Accurately ripped
 15     [692031bd|1dadcc04] (00+17/17) Accurately ripped
 16     [57f81e5b|87fa6b90] (00+16/16) Accurately ripped
 17     [b8279fd6|9978d4fd] (00+17/17) Accurately ripped
 18     [e597e271|f0a455c4] (00+17/17) Accurately ripped
 19     [e9765154|06c06662] (00+17/17) Accurately ripped
 20     [c78cc5b4|097cbded] (00+17/17) Accurately ripped
 21     [bbb314dd|809a6a7b] (00+17/17) Accurately ripped
 22     [c1c7fbde|12bec724] (00+17/17) Accurately ripped
 23     [4af979b3|640f3bad] (00+17/17) Accurately ripped
 24     [b290d03d|7ab1af92] (00+17/17) Accurately ripped

Track Peak [ CRC32  ] [W/O NULL]
 --  100,0 [D45EBC35] [558ABC21]
 01   99,9 [B7BDBF08] [C5D4A1E0]
 02   96,6 [33CC9C1D] [133464DE]
 03   94,6 [2B17D364] [4ABEEB42]
 04   98,7 [3BC99546] [082EC39F]
 05   96,6 [214A509E] [DE91CFC5]
 06   78,2 [4E9B9531] [9266FDC1]
 07   96,6 [ABE81EA0] [9D77D99B]
 08   87,5 [4849C8C6] [C1FF3D41]
 09   99,9 [1358725A] [96E49A0E]
 10   96,6 [76779217] [92C21ABE]
 11   99,9 [A13BB9E6] [0DDE7BA4]
 12   96,6 [E67E29DC] [CEB2EF71]
 13   96,6 [4B4E15D4] [2D83347F]
 14   96,6 [BA1D862F] [97564D0B]
 15   97,3 [EC240708] [A351A3F6]
 16   96,6 [8FDBB915] [704CD2FE]
 17   96,6 [8D4C9039] [6D90B85D]
 18  100,0 [ECD332CE] [BD6A163C]
 19   96,6 [B504E3E3] [5B11CBBA]
 20   96,6 [70363B43] [1CB3A893]
 21   96,6 [3B105A4E] [820DF378]
 22   96,6 [4B98B073] [2D4D11FD]
 23   48,9 [EDBBA5D9] [25A43079]
 24   96,6 [1181E4F7] [482A81D2]
18:31
587
Нет комментариев. Ваш будет первым!