Поиск

1995 Dick Haymes with Harry James & Benny Goodman - Serenading With The Big Bands {Sony A 26058} [CD]

1995 Dick Haymes with Harry James & Benny Goodman - Serenading With The Big Bands {Sony A 26058} [CD]

01. A Sinner Kissed an Angel (3:15)
02. Montevideo (3:16)
03. You Don't Know What Love Is (3:14)
04. Ol' Man River (2:54)
05. Dar Dreaming (2:48)
06. Aurora (2:53)
07. I'll Never Let a Day Pass By (3:30)
08. I've Got a Gal in Kalamazoo (3:04)
09. Idaho (3:03)
10. Serenade in Blue (3:11)

Жанр: Vocal Jazz, Vocal Pop
Носитель: CD
Страна-производитель диска (релиза): США
Год издания: 1995
Издатель (лейбл): Sony Music Special Products
Номер по каталогу: A 26058
Аудиокодек: FLAC (*.flac)
Тип рипа: tracks+.cue
Битрейт аудио: lossless
Продолжительность: 00:31:08
Источник: LaserLight
Наличие сканов в содержимом раздачи: нет

Лог создания рипа
Exact Audio Copy V1.3 from 2. September 2016

EAC extraction logfile from 4. January 2018, 18:08

Dick Haymes / Serenading With The Big Bands

Used drive  : ATAPI   iHAS124   F   Adapter: 2  ID: 0

Read mode               : Secure
Utilize accurate stream : Yes
Defeat audio cache      : Yes
Make use of C2 pointers : No

Read offset correction                      : 6
Overread into Lead-In and Lead-Out          : No
Fill up missing offset samples with silence : Yes
Delete leading and trailing silent blocks   : No
Null samples used in CRC calculations       : Yes
Used interface                              : Native Win32 interface for Win NT & 2000
Gap handling                                : Appended to previous track

Used output format              : User Defined Encoder
Selected bitrate                : 1024 kBit/s
Quality                         : High
Add ID3 tag                     : No
Command line compressor         : C:\Program Files (x86)\Exact Audio Copy\Flac\flac.exe
Additional command line options : -8 -e -p -V -T "ARTIST=%artist%" -T "TITLE=%title%" -T "ALBUM=%albumtitle%" -T "DATE=%year%" -T "TRACKNUMBER=%tracknr%" -T "GENRE=%genre%" -T "PERFORMER=%albuminterpret%" -T "COMPOSER=%composer%" %haslyrics%--tag-from-file=LYRICS="%lyricsfile%"%haslyrics% -T "ALBUMARTIST=%albumartist%" -T "DISCNUMBER=%cdnumber%" -T "TOTALDISCS=%totalcds%" -T "TOTALTRACKS=%numtracks%" -T "COMMENT=%comment%" %source% -o %dest%

TOC of the extracted CD

     Track |   Start  |  Length  | Start sector | End sector
    ---------------------------------------------------------
        1  |  0:00.00 |  3:15.00 |         0    |    14624
        2  |  3:15.00 |  3:15.50 |     14625    |    29299
        3  |  6:30.50 |  3:13.63 |     29300    |    43837
        4  |  9:44.38 |  2:54.12 |     43838    |    56899
        5  | 12:38.50 |  2:47.38 |     56900    |    69462
        6  | 15:26.13 |  2:52.50 |     69463    |    82412
        7  | 18:18.63 |  3:30.37 |     82413    |    98199
        8  | 21:49.25 |  3:04.10 |     98200    |   112009
        9  | 24:53.35 |  3:03.00 |    112010    |   125734
       10  | 27:56.35 |  3:10.55 |    125735    |   140039

Track  1

     Filename G:\Audio\Drive5\01 - A Sinner Kissed An Angel.wav

     Pre-gap length  0:00:02.00

     Peak level 75.4 %
     Extraction speed 3.8 X
     Track quality 100.0 %
     Test CRC 60E198A3
     Copy CRC 60E198A3
     Track not present in AccurateRip database
     Copy OK

Track  2

     Filename G:\Audio\Drive5\02 - Montevideo.wav

     Pre-gap length  0:00:02.80

     Peak level 67.3 %
     Extraction speed 4.1 X
     Track quality 100.0 %
     Test CRC 1FE66433
     Copy CRC 1FE66433
     Track not present in AccurateRip database
     Copy OK

Track  3

     Filename G:\Audio\Drive5\03 - You Don't Know What Love Is.wav

     Pre-gap length  0:00:02.49

     Peak level 58.7 %
     Extraction speed 3.5 X
     Track quality 99.9 %
     Test CRC FDE3CE09
     Copy CRC FDE3CE09
     Track not present in AccurateRip database
     Copy OK

Track  4

     Filename G:\Audio\Drive5\04 - Ol' Man River.wav

     Pre-gap length  0:00:02.80

     Peak level 92.8 %
     Extraction speed 4.6 X
     Track quality 100.0 %
     Test CRC 729E2FA0
     Copy CRC 729E2FA0
     Track not present in AccurateRip database
     Copy OK

Track  5

     Filename G:\Audio\Drive5\05 - Dar Dreaming.wav

     Pre-gap length  0:00:03.36

     Peak level 69.7 %
     Extraction speed 4.8 X
     Track quality 100.0 %
     Test CRC 87617DE7
     Copy CRC 87617DE7
     Track not present in AccurateRip database
     Copy OK

Track  6

     Filename G:\Audio\Drive5\06 - Aurora.wav

     Pre-gap length  0:00:02.40

     Peak level 95.4 %
     Extraction speed 5.1 X
     Track quality 100.0 %
     Test CRC F83A7C81
     Copy CRC F83A7C81
     Track not present in AccurateRip database
     Copy OK

Track  7

     Filename G:\Audio\Drive5\07 - I'll Never Let A Day Pass By.wav

     Pre-gap length  0:00:02.33

     Peak level 100.0 %
     Extraction speed 4.3 X
     Track quality 99.9 %
     Test CRC 9EA5FABD
     Copy CRC 9EA5FABD
     Track not present in AccurateRip database
     Copy OK

Track  8

     Filename G:\Audio\Drive5\08 - I've Got A Gal In Kalamazoo.wav

     Pre-gap length  0:00:02.69

     Peak level 80.8 %
     Extraction speed 5.6 X
     Track quality 100.0 %
     Test CRC 4B5FEBEF
     Copy CRC 4B5FEBEF
     Track not present in AccurateRip database
     Copy OK

Track  9

     Filename G:\Audio\Drive5\09 - Idaho.wav

     Pre-gap length  0:00:03.16

     Peak level 86.8 %
     Extraction speed 5.7 X
     Track quality 100.0 %
     Test CRC 7F3F169E
     Copy CRC 7F3F169E
     Track not present in AccurateRip database
     Copy OK

Track 10

     Filename G:\Audio\Drive5\10 - Serenade In Blue.wav

     Pre-gap length  0:00:02.80

     Peak level 89.6 %
     Extraction speed 5.9 X
     Track quality 100.0 %
     Test CRC 6DD57986
     Copy CRC 6DD57986
     Track not present in AccurateRip database
     Copy OK

None of the tracks are present in the AccurateRip database

No errors occurred

End of status report

---- CUETools DB Plugin V2.1.6

[CTDB TOCID: Poh5Zl6i2QdCj3N4UG2ptZq9l_o-] disk not present in database
Submit result: Poh5Zl6i2QdCj3N4UG2ptZq9l_o- has been uploaded

==== Log checksum C9ADE58D8BE4A611D12689D710695ED375A5FBF42B41FCB2ACE5314C99962FC6 ====
Содержание индексной карты (.CUE)
REM GENRE Jazz
REM DATE 1995
REM DISCID 85074B0A
REM COMMENT "ExactAudioCopy v1.3"
PERFORMER "Dick Haymes"
TITLE "Serenading with the Big Bands"
FILE "01 - A Sinner Kissed an Angel.wav" WAVE
  TRACK 01 AUDIO
    TITLE "A Sinner Kissed an Angel"
    PERFORMER "Dick Haymes"
    INDEX 01 00:00:00
  TRACK 02 AUDIO
    TITLE "Montevideo"
    PERFORMER "Dick Haymes"
    INDEX 00 03:12:15
FILE "02 - Montevideo.wav" WAVE
    INDEX 01 00:00:00
  TRACK 03 AUDIO
    TITLE "You Don't Know What Love Is"
    PERFORMER "Dick Haymes"
    INDEX 00 03:13:13
FILE "03 - You Don't Know What Love Is.wav" WAVE
    INDEX 01 00:00:00
  TRACK 04 AUDIO
    TITLE "Ol' Man River"
    PERFORMER "Dick Haymes"
    INDEX 00 03:11:03
FILE "04 - Ol' Man River.wav" WAVE
    INDEX 01 00:00:00
  TRACK 05 AUDIO
    TITLE "Dar Dreaming"
    PERFORMER "Dick Haymes"
    INDEX 00 02:50:60
FILE "05 - Dar Dreaming.wav" WAVE
    INDEX 01 00:00:00
  TRACK 06 AUDIO
    TITLE "Aurora"
    PERFORMER "Dick Haymes"
    INDEX 00 02:45:08
FILE "06 - Aurora.wav" WAVE
    INDEX 01 00:00:00
  TRACK 07 AUDIO
    TITLE "I'll Never Let a Day Pass By"
    PERFORMER "Dick Haymes"
    INDEX 00 02:50:25
FILE "07 - I'll Never Let a Day Pass By.wav" WAVE
    INDEX 01 00:00:00
  TRACK 08 AUDIO
    TITLE "I've Got a Gal in Kalamazoo"
    PERFORMER "Dick Haymes"
    INDEX 00 03:27:60
FILE "08 - I've Got a Gal in Kalamazoo.wav" WAVE
    INDEX 01 00:00:00
  TRACK 09 AUDIO
    TITLE "Idaho"
    PERFORMER "Dick Haymes"
    INDEX 00 03:00:73
FILE "09 - Idaho.wav" WAVE
    INDEX 01 00:00:00
  TRACK 10 AUDIO
    TITLE "Serenade in Blue"
    PERFORMER "Dick Haymes"
    INDEX 00 03:00:15
FILE "10 - Serenade in Blue.wav" WAVE
    INDEX 01 00:00:00
Приватный:
Нет (DHT включён)
Размер:
117.49 Мб (123,194,681 байт) » файлов: 14
Участники:
8 раздают, 0 качают (8 участников всего)
Внешние участники:
2 раздают, 1 качают (3 участников всего) [ Обновить ]
18:35
506
Нет комментариев. Ваш будет первым!