Вы используете незарегистрированную версию компонента "Вкладки"!

Поиск

2011 Lionel Belmondo - Clairières dans le Ciel {bFlat 6149582} [24-44,1]

2011 Lionel Belmondo - Clairières dans le Ciel {bFlat 6149582} [24-44,1]
Дата издания диска:
7 ноября 2011
Номер по каталогу:
bFlat 6149582
Носитель:
WEB
Тип рипа:
tracks+.cue
Аудиокодек:
FLAC (*.flac)
Битрейт аудио:
lossless
Время звучания:
00:58:48
Наличие сканов:
да
Релизёр (источник):
M0p94ok
Лог проверки качества
foobar2000 1.3.16 / Dynamic Range Meter 1.1.1
log date: 2019-03-25 16:16:20

--------------------------------------------------------------------------------
Analyzed: Lionel Belmondo / Clairières dans le Ciel (avec L'Ensemble Hymne au Soleil, le Chœur National de Lettonie)
--------------------------------------------------------------------------------

DR         Peak         RMS     Duration Track
--------------------------------------------------------------------------------
DR11      -0.40 dB   -15.74 dB      3:06 01-Tantum Ergo
DR9       -0.10 dB   -14.42 dB      8:22 02-Lamento
DR8       -0.20 dB   -10.94 dB      2:09 03-Nous Nous Aimerons Tant
DR9       -0.42 dB   -14.71 dB      7:37 04-Demain Fera Un An
DR9       -0.28 dB   -12.09 dB      5:07 05-Enigma
DR9       -0.55 dB   -12.80 dB      2:35 06-Les Lilas Qui Avaient Fleuri
DR8       -0.10 dB   -12.51 dB      2:46 07-Vox Lumina
DR8       -1.01 dB   -13.65 dB      1:49 08-Eclosion
DR10      -1.73 dB   -17.48 dB      2:33 09-Diptyque
DR10      -0.22 dB   -14.85 dB      5:52 10-Diane, Séléné.../L'Absent
DR8       -0.10 dB   -10.94 dB      5:43 11-Je Garde Une Médaille D'Elle
DR10      -0.27 dB   -14.04 dB     11:15 12-A Sylogism
--------------------------------------------------------------------------------

Number of tracks:  12
Official DR value: DR9

Samplerate:        44100 Hz
Channels:          2
Bits per sample:   24
Bitrate:           1419 kbps
Codec:             FLAC
================================================================================
Any questions - support@pro-jazz.com. Есть вопросы - support@pro-jazz.com
02:59
172
Нет комментариев. Ваш будет первым!