Поиск

2010 Steve Tibbetts - Natural Causes (2018) {ECM} [24-88,2]

2010 Steve Tibbetts - Natural Causes (2018) {ECM} [24-88,2]
Издатель (лейбл):

Треклист:

 

Формат записи/Источник записи: [TR24][OF]
Наличие водяных знаков: Нет
Издание: Remastered
Год издания/переиздания диска: 2010/2018
Продолжительность: 00:43:55
Наличие сканов в содержимом раздачи: Только обложка альбома
Контейнер: FLAC (*.flac)
Тип рипа: tracks
Разрядность: 24/88,2
Формат: PCM
Количество каналов: 2.0
Источник (релизер): qobuz.com

Треклист:
01. Sitavana [01:33]
02. Padre-Yaga [06:26]
03. Attahasa [05:48]
04. Chandogra [04:25]
05. Sangchen Rolpa [03:08]
06. Lakshmivana [06:09]
07. Manikarnika [02:13]
08. Ishvaravana [00:52]
09. Gulezian [05:05]
10. Kili-ki Drok [01:23]
11. Kuladzokpa [01:32]
12. Lament [02:53]
13. Threnody [02:16]

 
Лог проверки качества
foobar2000 1.3.17 / Замер динамического диапазона (DR) 1.1.1
Дата отчёта:  2018-06-19 18:22:29
--------------------------------------------------------------------------------
Анализ:   Steve Tibbetts / Natural Causes
--------------------------------------------------------------------------------
DR         Пики         RMS           Продолжительность трека
--------------------------------------------------------------------------------
DR12      -6.89 дБ   -24.77 дБ      1:30 01-Sitavana
DR14      -3.81 дБ   -21.69 дБ      6:27 02-Padre-Yaga
DR13      -6.91 дБ   -23.34 дБ      5:52 03-Attahasa
DR12      -1.88 дБ   -18.48 дБ      4:27 04-Chandogra
DR12      -5.95 дБ   -22.37 дБ      3:10 05-Sangchen Rolpa
DR13      -2.90 дБ   -20.87 дБ      6:12 06-Lakshmivana
DR11      -7.04 дБ   -22.00 дБ      2:15 07-Manikarnika
DR11      -5.69 дБ   -24.95 дБ      0:53 08-Ishvaravana
DR14      -2.17 дБ   -20.08 дБ      5:06 09-Gulezian
DR11      -9.92 дБ   -25.09 дБ      1:23 10-Kili-ki Drok
DR13      -5.87 дБ   -25.47 дБ      1:34 11-Kuladzokpa
DR12      -7.92 дБ   -22.99 дБ      2:58 12-Lament
DR12      -7.08 дБ   -23.54 дБ      2:16 13-Threnody
--------------------------------------------------------------------------------
Количество треков: 13
Реальные значения DR: DR12
Частота:  88200 Гц
Каналов:  2
Разрядность:   24
Битрейт:  2241 кбит/с
Кодек:   FLAC
================================================================================

 

Состав:
  • Marc Anderson Drums (Steel), Gong, Percussion
  • Steve Tibbetts Bouzouki, Composer, Engineer, Guitar, Kalimba, Piano
Download available for power users only.
13:00
584
Нет комментариев. Ваш будет первым!