Поиск

1982 Steve Tibbetts - Northern Song (2018) {ECM} [24-96]

1982 Steve Tibbetts - Northern Song (2018) {ECM} [24-96]
Издатель (лейбл):

Треклист:

Формат записи/Источник записи: [TR24][OF]
Наличие водяных знаков: Нет
Издание: Remastered
Год издания/переиздания диска: 1982/2018
Дата записи: 26-28 октября 1981
Место записи: Talent Studio, Oslo, Norway
Продолжительность: 00:48:27
Наличие сканов в содержимом раздачи: Только обложка альбома
Контейнер: FLAC (*.flac)
Тип рипа: tracks
Разрядность: 24/96
Формат: PCM
Количество каналов: 2.0
Источник (релизер): qobuz.com

Треклист:
1. The Big Wind [08:17]
2. Form [07:18]
3. Walking [06:28]
4. Aerial View [04:14]
5. Nine Doors / Breathing Space [21:56]

 
Лог проверки качества
foobar2000 1.3.17 / Замер динамического диапазона (DR) 1.1.1
Дата отчёта:  2018-06-19 18:51:07
--------------------------------------------------------------------------------
Анализ:   Steve Tibbetts / Northern Song
--------------------------------------------------------------------------------
DR         Пики         RMS           Продолжительность трека
--------------------------------------------------------------------------------
DR13      -1.58 дБ   -20.85 дБ      8:18 01-The Big Wind
DR14      -4.23 дБ   -24.73 дБ      7:19 02-Form
DR12      -3.33 дБ   -21.21 дБ      6:34 03-Walking
DR13      -2.23 дБ   -18.50 дБ      4:21 04-Aerial View
DR16      -0.40 дБ   -22.97 дБ     21:59 05-Nine Doors / Breathing Space
--------------------------------------------------------------------------------
Количество треков: 5
Реальные значения DR: DR14
Частота:  96000 Гц
Каналов:  2
Разрядность:   24
Битрейт:  2649 кбит/с
Кодек:   FLAC
================================================================================

 

Состав:
  • Steve Tibbetts - guitars, kalimba, tape loops
  • Marc Anderson - congas, bongos, percussion

Produced by Manfred Eicher

Download available for power users only.
13:08
636
Нет комментариев. Ваш будет первым!