Поиск

2010 Mikrokolektyw - Dew Point (Live at Wytwornia Filmow Fabularnych) {Delmark} [24-48]

2010 Mikrokolektyw - Dew Point (Live at Wytwornia Filmow Fabularnych) {Delmark} [24-48]
Стили:
Дата записи диска:
19 апреля 2010
Место записи:
Wytwornia Filmow Fabularnych, Wroclaw, Poland
Носитель:
WEB
Формат:
PCM
Тип рипа:
tracks
Контейнер:
FLAC (*.flac)
Количество каналов:
2.0
Разрядность/ЧД:
24/48
Битрейт аудио:
lossless
Время звучания:
01:00:50
Наличие сканов:
только обложка

01 - Revist (05:59)
02 - Revist (04:25)
03 - Rocket Street (03:21)
04 - Running Without Effort (06:39)
05 - Tiring Holiday (05:29)
06 - Almost A Good Mood (03:30)
07 - Dew Point (06:10)
08 - Attention! (04:35)
09 - Lipuko (05:13)
10 - Casio (03:45)
11 - Engineer (06:29)
12 - Praying Mantis (05:09)

Состав:
  • Artur Majewski     Composer, Electronics, Trumpet
  • Kuba Suchar     Composer, Drums, Electronics
  • Raymond Salvatore Harmon
Лог проверки качества
foobar2000 1.4.2 / Dynamic Range Meter 1.1.1
log date: 2021-08-07 21:44:06
--------------------------------------------------------------------------------
Analyzed: Mikrokolektyw / Dew Point [Live at Wytwornia Filmow Fabularnych]
--------------------------------------------------------------------------------
DR         Peak         RMS     Duration Track
--------------------------------------------------------------------------------
DR12      -3.76 dB   -20.35 dB      6:00 01-Revist
DR15      -4.24 dB   -20.90 dB      4:25 02-Revist
DR8       -7.12 dB   -16.83 dB      3:22 03-Rocket Street
DR18      -3.40 dB   -22.84 dB      6:39 04-Running Without Effort
DR11      -7.43 dB   -21.22 dB      5:29 05-Tiring Holiday
DR16      -4.35 dB   -23.53 dB      3:30 06-Almost A Good Mood
DR14       0.00 dB   -17.57 dB      6:11 07-Dew Point
DR15      -5.32 dB   -21.10 dB      4:36 08-Attention!
DR19      -1.50 dB   -21.92 dB      5:14 09-Lipuko
DR15      -4.41 dB   -21.06 dB      3:46 10-Casio
DR15      -5.60 dB   -21.41 dB      6:30 11-Engineer
DR11      -4.83 dB   -16.07 dB      5:10 12-Praying Mantis
--------------------------------------------------------------------------------
Number of tracks:  12
Official DR value: DR14
Samplerate:        48000 Hz
Channels:          2
Bits per sample:   24
Bitrate:           673 kbps
Codec:             FLAC
================================================================================
Скачивание доступно после регистрации!!
Приватный:
Нет (DHT включён)
Размер:
311.63 Мб (326,764,578 байт) » файлов: 13
Участники:
0 раздают, 0 качают (0 участников всего)
Внешние участники:
5 раздают, 1 качают (6 участников всего) [ Обновить ]
21:32
428
Нет комментариев. Ваш будет первым!