Поиск

2006 Ernest Dawkins' New Horizons Ensemble - The Messenger {Delmark} [24-48]

2006 Ernest Dawkins' New Horizons Ensemble - The Messenger {Delmark} [24-48]
Дата записи диска:
14 июля 2005
Место записи:
The Velvet Lounge, Chicago, Il, USA
Дата издания диска:
27 июня 2006
Носитель:
WEB
Формат:
PCM
Тип рипа:
tracks
Контейнер:
FLAC (*.flac)
Количество каналов:
2.0
Разрядность/ЧД:
24/48
Битрейт аудио:
lossless
Время звучания:
01:14:50
Наличие сканов:
только обложка

Треклист:

01 - Intro (01:06)
02 - Mean Ameen (11:08)
03 - The Messenger (13:30)
04 - Goin' Downtown Blues (11:18)
05 - Toucouleur (17:32)
06 - The Brood (08:25)
07 - The Boute (02:10)
08 - Lookin' for Ninny (08:44)
09 - Go Fred (00:54)

Состав:
  •     Alto Saxophone, Tenor Saxophone – Ernest Dawkins*
  •     Bass – Darius Savage
  •     Design – David Forte, ForDzine*
  •     Drums – Isaiah Spencer
  •     Liner Notes – Tom Terrell
  •     Producer [Album Production], Supervised By – Robert G. Koester, Steve Wagner
  •     Recorded By, Mixed By, Mastered By – Eric Butkus, Steve Wagner
  •     Trombone – Steve Berry (3)
  •     Trumpet – Maurice Brown (3)
Лог проверки качества
foobar2000 1.4.2 / Dynamic Range Meter 1.1.1
log date: 2021-08-07 21:55:03
--------------------------------------------------------------------------------
Analyzed: Ernest Dawkins' New Horizons Ensemble / The Messenger - Live at the Original Velvet Lounge
--------------------------------------------------------------------------------
DR         Peak         RMS     Duration Track
--------------------------------------------------------------------------------
DR16      -4.59 dB   -28.16 dB      1:06 01-Intro
DR12       0.00 dB   -13.65 dB     11:08 02-Mean Ameen
DR11       0.00 dB   -14.21 dB     13:30 03-The Messenger
DR10       0.00 dB   -13.94 dB     11:19 04-Goin' Downtown Blues
DR12       0.00 dB   -15.06 dB     17:33 05-Toucouleur
DR13       0.00 dB   -16.72 dB      8:26 06-The Brood
DR19      -0.14 dB   -25.59 dB      2:10 07-The Boute
DR9        0.00 dB   -11.83 dB      8:44 08-Lookin' for Ninny
DR8        0.00 dB   -10.33 dB      0:55 09-Go Fred
--------------------------------------------------------------------------------
Number of tracks:  9
Official DR value: DR12
Samplerate:        48000 Hz
Channels:          2
Bits per sample:   24
Bitrate:           1820 kbps
Codec:             FLAC
================================================================================
16:56
360
Нет комментариев. Ваш будет первым!