Вы используете незарегистрированную версию компонента "Вкладки"!

Поиск

2009 Angela Hagenbach - The Way They Make Me Feel (2017) {2xHD} [24-44,1]

2009 Angela Hagenbach - The Way They Make Me Feel (2017) {2xHD} [24-44,1]
Стили:
Издатель (лейбл):
Битрейт аудио:
lossless
Доп. инфо:

Формат записи/Источник записи: [TR24][OF]
Год издания/переиздания диска: 2009/2017
Издатель (лейбл): 2xHD
Продолжительность: 01:00:34
Наличие сканов в содержимом раздачи: Буклет PDF

Контейнер: FLAC (*.flac)
Тип рипа: tracks
Разрядность: 24/44,1
Количество каналов: 2.0

Источник (релизер): PRESTO JAZZ

Лог проверки качества
foobar2000 1.3.7 / Dynamic Range Meter 1.1.1
log date: 2019-08-12 11:57:14

--------------------------------------------------------------------------------
Analyzed: Angela Hagenbach / The Way They Make Me Feel
--------------------------------------------------------------------------------

DR         Peak         RMS     Duration Track
--------------------------------------------------------------------------------
DR10      -0.55 dB   -13.41 dB      5:50 01-Cinnamon and Clove
DR12      -2.12 dB   -16.84 dB      5:12 02-Slow Hot Wind
DR11      -2.31 dB   -16.72 dB      4:44 03-Summer Me, Winter Me
DR10      -1.61 dB   -15.22 dB      7:36 04-I Will Wait for You
DR10      -1.48 dB   -13.96 dB      4:21 05-Quietly There
DR10      -1.74 dB   -14.82 dB      5:08 06-Sure As You're Born
DR10      -1.97 dB   -15.04 dB      6:03 07-Close Enough for Love
DR11      -1.92 dB   -15.43 dB      5:33 08-Charade
DR12      -2.05 dB   -16.83 dB      5:03 09-Whistling Away the Dark
DR10      -1.74 dB   -14.86 dB      6:56 10-His Eyes, Her Eyes
DR11      -2.04 dB   -16.71 dB      4:12 11-The Way He Makes Me Feel
--------------------------------------------------------------------------------

Number of tracks:  11
Official DR value: DR11

Samplerate:        44100 Hz
Channels:          2
Bits per sample:   24
Bitrate:           1421 kbps
Codec:             FLAC
================================================================================
Any questions - support@pro-jazz.com. Есть вопросы - support@pro-jazz.com
22:44
271
Нет комментариев. Ваш будет первым!