Вы используете незарегистрированную версию компонента "Вкладки"!

Поиск

1959 Don Ewell Quartet - Yellow Dog Blues (2018) {2xHD, Storyville} [24-192]

1959 Don Ewell Quartet - Yellow Dog Blues (2018) {2xHD, Storyville} [24-192]
Стили:
Дата записи диска:
21 мая 1959
Место записи:
Chicago, Illinois, USA
Издатель (лейбл):
Битрейт аудио:
lossless
Доп. инфо:

Формат записи/Источник записи: [TR24][OF]
Издание: Remastered
Год издания/переиздания диска: 1959/2018
Издатель (лейбл): 2xHD - Storyville Records
Продолжительность: 00:37:51
Наличие сканов в содержимом раздачи: Буклет PDF
Контейнер: FLAC (*.flac)
Тип рипа: tracks
Разрядность: 24/192
Количество каналов: 2.0

Источник (релизер): HDtracks

Лог проверки качества
foobar2000 1.4.3 / Dynamic Range Meter 1.1.1
log date: 2020-06-22 07:39:20

--------------------------------------------------------------------------------
Analyzed: Don Ewell Quartet / Yellow Dog Blues (Remastered)
--------------------------------------------------------------------------------

DR         Peak         RMS     Duration Track
--------------------------------------------------------------------------------
DR13      -4.65 dB   -22.49 dB      4:30 01-Michigan Water Blues
DR13      -2.73 dB   -20.05 dB      5:38 02-Atlanta Blues
DR13      -5.06 dB   -22.35 dB      5:07 03-Tishomino Blues
DR13      -4.32 dB   -20.30 dB      4:44 04-Georgia Bo Bo
DR13      -2.88 dB   -20.65 dB      4:08 05-New Orleans Hop Scop Blues
DR13      -6.67 dB   -23.44 dB      4:12 06-Blues My Naugthy Sweetie Gave To Me
DR13      -3.35 dB   -20.43 dB      4:41 07-Ole Miss
DR13      -7.36 dB   -24.50 dB      5:00 08-Yellow Dog Blues
--------------------------------------------------------------------------------

Number of tracks:  8
Official DR value: DR13

Samplerate:        192000 Hz
Channels:          2
Bits per sample:   24
Bitrate:           4954 kbps
Codec:             FLAC
================================================================================
Any questions - support@pro-jazz.com. Есть вопросы - support@pro-jazz.com
23:09
291
Нет комментариев. Ваш будет первым!