Поиск

2008 Renato Sellani Trio - My Foolish Heart (2016) {Venus} [DSD64 ISO]

2008 Renato Sellani Trio - My Foolish Heart (2016) {Venus} [DSD64 ISO]
Стили:
Дата записи диска:
19 июля 2007
Место записи:
The House Recording Studio, Rome, Italy
Дата переиздания диска:
17 августа 2016
Издатель (лейбл):
Номер по каталогу:
VHGD-166
Носитель:
SACD
Формат:
DSD
Тип рипа:
image
Контейнер:
ISO (*.iso)
Количество каналов:
2.0
Разрядность/ЧД:
64 (2,8 MHz/1 Bit)
Битрейт аудио:
lossless
Время звучания:
00:46:32
Наличие сканов:
только обложка

01        Besame Mucho    6:47
02        I Love You, Porgy - Summertime    3:56
03        My Foolish Heart    5:05
04        So In Love - I Love You    4:40
05        Corcovado    3:02
06        Stella By Starlight    4:34
07        My Funny Valentine    4:00
08        But Not For Me    4:39
09        Autumn Leaves    5:40
10        It Could Happen To You    4:02

Состав:
  •     Bass – Massimo Moriconi
  •     Drums – Massimo Manzi
  •     Engineer – Simone Ciammarughi
  •     Mixed By, Mastered By – Tetsuo Hara
  •     Piano – Renato Sellani
  •     Producer – Tetsuo Hara
Лог проверки качества
foobar2000 1.6.7 / Dynamic Range Meter 1.1.1
log date: 2021-11-05 15:55:06

--------------------------------------------------------------------------------
Analyzed: RENATO SELLANI TRIO / My Foolish Heart
--------------------------------------------------------------------------------

DR         Peak         RMS     Duration Track
--------------------------------------------------------------------------------
DR7       -4.96 dB   -14.44 dB      6:48 01-Besame Mucho
DR8       -4.99 dB   -14.99 dB      3:56 02-I Love You, Porgy ~ Summertime
DR9       -5.20 dB   -16.49 dB      5:06 03-My Foolish Heart
DR8       -5.04 dB   -15.97 dB      4:40 04-So In Love ~ I Love You
DR9       -5.11 dB   -16.14 dB      3:03 05-Corcovado
DR8       -4.95 dB   -14.89 dB      4:35 06-Stella By Starlight
DR9       -5.15 dB   -17.90 dB      4:01 07-My Funny Valentine
DR8       -4.84 dB   -14.98 dB      4:40 08-But Not For Me
DR8       -4.29 dB   -15.65 dB      5:41 09-Autumn Leaves
DR8       -5.12 dB   -14.93 dB      4:02 10-It Could Happen To You
--------------------------------------------------------------------------------

Number of tracks:  10
Official DR value: DR8

Samplerate:        2822400 Hz / PCM Samplerate: 88200 Hz
Channels:          2
Bits per sample:   1
Bitrate:           5645 kbps
Codec:             DSD64
================================================================================
12:16
478
Нет комментариев. Ваш будет первым!