Поиск

1998 Richard Wyands Trio - Lady Of The Lavender Mist (2017) {Venus} [DSD64 ISO]

1998 Richard Wyands Trio - Lady Of The Lavender Mist (2017) {Venus} [DSD64 ISO]
Дата записи диска:
15 сентября 1997
Место записи:
Clinton Recording Studios, New York, NY, USA
Издатель (лейбл):
Номер по каталогу:
VHGD-247
Носитель:
SACD
Формат:
DSD
Тип рипа:
image
Контейнер:
ISO (*.iso)
Количество каналов:
2.0
Разрядность/ЧД:
64 (2,8 MHz/1 Bit)
Битрейт аудио:
lossless
Время звучания:
00:42:57
Наличие сканов:
только обложка

1. Softly, With Feeling  05:44
2. Flamingo  06:38
3. When I Fall in Love  06:12
4. So In Love  04:48
5. Lady of the Lavender Mist  05:51
6. I Didn't Know What Time It Was  07:31
7. Born to Be Blue  06:11

Состав:
  •     Bass – Peter Washington
  •     Drums – Kenny Washington
  •     Engineer – Troy Halderson
  •     Mastered By – Shuji Kitamura, Tetsuo Hara
  •     Piano – Richard Wyands
  •     Producer – Tetsuo Hara
Лог проверки качества
foobar2000 1.6.7 / Dynamic Range Meter 1.1.1
log date: 2021-11-01 20:04:17

--------------------------------------------------------------------------------
Analyzed: RICHARD WYANDS TRIO / Lady Of The Lavender Mist
--------------------------------------------------------------------------------

DR         Peak         RMS     Duration Track
--------------------------------------------------------------------------------
DR10      -4.81 dB   -16.48 dB      5:44 01-Softly, With Feeling
DR12      -4.89 dB   -18.95 dB      6:38 02-Flamingo
DR11      -4.91 dB   -20.02 dB      6:12 03-When I Fall In Love
DR11      -4.82 dB   -17.76 dB      4:48 04-So In Love
DR10      -4.85 dB   -19.18 dB      5:51 05-Lady Of The Lavender Mist
DR11      -4.80 dB   -18.07 dB      7:32 06-I Didn't Know What Time It Was
DR12      -4.84 dB   -19.99 dB      6:12 07-Born To Be Blue
--------------------------------------------------------------------------------

Number of tracks:  7
Official DR value: DR11

Samplerate:        2822400 Hz / PCM Samplerate: 88200 Hz
Channels:          2
Bits per sample:   1
Bitrate:           5645 kbps
Codec:             DSD64
================================================================================
Приватный:
Нет (DHT включён)
Размер:
2.53 Гб (2,714,960,144 байт) » файлов: 15
Участники:
0 раздают, 0 качают (0 участников всего)
Внешние участники:
--- [ Обновить ]
10:15
420
Нет комментариев. Ваш будет первым!