Поиск

2008 Pat Metheny Trio - Day Trip {Nonesuch 376828-2}

2008 Pat Metheny Trio - Day Trip {Nonesuch 376828-2}
Страна-производитель диска (релиза):
USA
Дата записи диска:
19 октября 2005
Дата издания диска:
29 января 2008
Номер по каталогу:
376828-2
Носитель:
CD
Битрейт аудио:
lossless
Аудиокодек:
FLAC (*.flac)
Тип рипа:
tracks
Время звучания:
68:08
Наличие сканов:
  • да
Релизёр (источник):
CocoBrice
Треклист:

01. Son of Thirteen 5:49
02. At Last You're Here 7:59
03. Let's Move 5:22
04. Snova 5:56
05. Calvin's Keys 7:25
06. Is This America? (Katrina 2005) 4:34
07. When We Were Free 9:00
08. Dreaming Trees 7:46
09. The Red One 4:47
10. Day Trip 9:03

Состав:
  • Pete Karam Engineer
  • Christian McBride Bass, Bass (Acoustic)
  • Pat Metheny Audio Production, Composer, Guitar, Producer
  • Antonio Sanchez Drums

Записано в Right Track Recording, New York, NY

Лог создания рипа
EAC extraction logfile from 30. January 2008, 8:37 for CD
Pat Metheny Trio / Day Trip
Used drive : TSSTcorpCD/DVDW SH-S182M Adapter: 0 ID: 1
Read mode : Secure with NO C2, accurate stream, disable cache
Read offset correction : 6
Overread into Lead-In and Lead-Out : No
Used output format : C:\EAC\flac-1.1.2-win\bin\flac.exe (User Defined Encoder)
320 kBit/s
Additional command line options : -8 -V -T "artist=%a" -T "title=%t" -T "album=%g" -T "date=%y" -T "tracknumber=%n" -T "genre=%m" -T "comment=Exact Audio Copy 0.95 b3 Secure Mode / FLAC q8 v. 1.1.2" %s
Other options :
Fill up missing offset samples with silence : Yes
Delete leading and trailing silent blocks : No
Installed external ASPI interface
Track 1
Filename D:\Pat Metheny Trio - Day Trip (2008) [FLAC]\01 - Son Of Thirteen.wav
Pre-gap length 0:00:02.00
Peak level 99.8 %
Track quality 100.0 %
Test CRC BDA0EE89
Copy CRC BDA0EE89
Copy OK
Track 2
Filename D:\Pat Metheny Trio - Day Trip (2008) [FLAC]\02 - At Last You're Here.wav
Peak level 99.9 %
Track quality 100.0 %
Test CRC 67605812
Copy CRC 67605812
Copy OK
Track 3
Filename D:\Pat Metheny Trio - Day Trip (2008) [FLAC]\03 - Let's Move.wav
Pre-gap length 0:00:01.73
Peak level 99.9 %
Track quality 100.0 %
Test CRC C01ED8B7
Copy CRC C01ED8B7
Copy OK
Track 4
Filename D:\Pat Metheny Trio - Day Trip (2008) [FLAC]\04 - Snova.wav
Peak level 99.9 %
Track quality 100.0 %
Test CRC 9B831297
Copy CRC 9B831297
Copy OK
Track 5
Filename D:\Pat Metheny Trio - Day Trip (2008) [FLAC]\05 - Calvin's Keys.wav
Pre-gap length 0:00:04.80
Peak level 99.8 %
Track quality 100.0 %
Test CRC 5B6430A8
Copy CRC 5B6430A8
Copy OK
Track 6
Filename D:\Pat Metheny Trio - Day Trip (2008) [FLAC]\06 - Is This America (Katrina 2005).wav
Pre-gap length 0:00:06.65
Peak level 99.8 %
Track quality 100.0 %
Test CRC 363099D4
Copy CRC 363099D4
Copy OK
Track 7
Filename D:\Pat Metheny Trio - Day Trip (2008) [FLAC]\07 - When We Were Free-.wav
Pre-gap length 0:00:02.86
Peak level 99.9 %
Track quality 100.0 %
Test CRC 6A729BB1
Copy CRC 6A729BB1
Copy OK
Track 8
Filename D:\Pat Metheny Trio - Day Trip (2008) [FLAC]\08 - Dreaming Trees.wav
Pre-gap length 0:00:08.37
Peak level 79.3 %
Track quality 99.9 %
Test CRC E51FE4B2
Copy CRC E51FE4B2
Copy OK
Track 9
Filename D:\Pat Metheny Trio - Day Trip (2008) [FLAC]\09 - The Red One.wav
Pre-gap length 0:00:00.48
Peak level 99.9 %
Track quality 100.0 %
Test CRC 7A76FFA6
Copy CRC 7A76FFA6
Copy OK
Track 10
Filename D:\Pat Metheny Trio - Day Trip (2008) [FLAC]\10 - Day Trip.wav
Pre-gap length 0:00:02.60
Peak level 99.9 %
Track quality 100.0 %
Test CRC F3A86220
Copy CRC F3A86220
Copy OK
No errors occured
End of status report
Приватный:
Нет (DHT включён)
Размер:
401.71 Мб (421,225,079 байт) » файлов: 28
Участники:
0 раздают, 0 качают (0 участников всего)
Внешние участники:
3 раздают, 1 качают (4 участников всего) [ Обновить ]
20:21
88
RSS
Нет комментариев. Ваш будет первым!