Поиск

1971 (1999) Thelonious Monk - The Complete London Collection (3CD) {Black Lion BLCD 7601-2}

1971 (1999) Thelonious Monk - The Complete London Collection (3CD) {Black Lion BLCD 7601-2}
Страна-производитель диска (релиза):
USA
Дата записи диска:
15 ноября 1971
Дата издания диска:
1999
Номер по каталогу:
BLCD 7601-2
Носитель:
CD
Битрейт аудио:
lossless
Аудиокодек:
FLAC (*.flac)
Тип рипа:
image+.cue
Время звучания:
152:20
Наличие сканов:
  • да
Релизёр (источник):
petr_aprel
Треклист:

Thelonious Monk The London Collection, Vol. 1

CD 01:
01 Trinkle, Tinkle [Take 3] 7:23
02 Crepuscule With Nellie [Take 2] 2:22
03 Darn That Dream 5:52
04 Little Rootie Tootie 4:08
05 Meet Me Tonight in Dreamland [#] 3:18
06 Nice Work If You Can Get It 5:17
07 My Melancholy Baby 5:08
08 Jackie-Ing 3:30
09 Lover Man [#] 7:12
10 Blue Sphere 2:23

CD 02:
11 Evidence [Take 2] 5:21
12 Misterioso 6:23
13 Crepuscule With Nellie [Take 4] 2:20
14 I Mean You 7:49Thelonious Monk The London Collection, Vol. 2
15 Criss-Cross 3:39
16 Ruby, My Dear 6:09
17 Nutty [Take 2] 4:45
18 Hackensack 7:55

CD 03:
19 Trinkle, Tinkle [Take 2] 5:54
20 The Man I Love 5:14
21 Something in Blue 6:38
22 Introspection [Take 1] 1:10
23 Trinkle, Tinkle [Take 1] 5:47
24 Crepuscule With Nellie [Take 3] 2:17
25 Nutty [Take 1] 3:07
26 Introspection [Take 3] 3:07
27 Hackensack [Take 1] 9:07
28 Evidence [Take 1] 7:15
29 Chordially (Improvisation) 9:39

Состав:

Записано в Chappell Studios, London

EAC extraction logfile from 16. May 2007, 21:09 for CD
Thelonious Monk / The Complete London Collection (Vol 1)
Used drive : PLEXTOR CD-R PX-230A Adapter: 1 ID: 0
Read mode : Secure with NO C2, accurate stream, disable cache
Read offset correction : 738
Overread into Lead-In and Lead-Out : No
Used output format : C:\Program Files\EAC\flac.exe (User Defined Encoder)
320 kBit/s
Additional command line options : -8 -V -T "artist=%a" -T "title=%t" -T "album=%g" -T "date=%y" -T "tracknumber=%n" -T "genre=%m" -T "comment=eac Flac 1.1.4 -8" %s
Other options :
Fill up missing offset samples with silence : Yes
Delete leading and trailing silent blocks : No
Installed external ASPI interface
Track 1
Filename D:\Fiamma\Thelonious Monk - The Complete London Collection (1999) [FLAC] {3 Vol}\Vol 1\01 - Trinkle Tinkle (Take 3).wav
Pre-gap length 0:00:02.00
Peak level 100.0 %
Track quality 100.0 %
Test CRC FA2F9FE5
Copy CRC FA2F9FE5
Copy OK
Track 2
Filename D:\Fiamma\Thelonious Monk - The Complete London Collection (1999) [FLAC] {3 Vol}\Vol 1\02 - Crepuscule with Nellie (Take 2).wav
Pre-gap length 0:00:05.00
Peak level 66.3 %
Track quality 100.0 %
Test CRC D3B47EB5
Copy CRC D3B47EB5
Copy OK
Track 3
Filename D:\Fiamma\Thelonious Monk - The Complete London Collection (1999) [FLAC] {3 Vol}\Vol 1\03 - Darn That Dream.wav
Peak level 100.0 %
Track quality 100.0 %
Test CRC DF490B65
Copy CRC DF490B65
Copy OK
Track 4
Filename D:\Fiamma\Thelonious Monk - The Complete London Collection (1999) [FLAC] {3 Vol}\Vol 1\04 - Little Rootie Tootie.wav
Peak level 100.0 %
Track quality 100.0 %
Test CRC BD55F5BF
Copy CRC BD55F5BF
Copy OK
Track 5
Filename D:\Fiamma\Thelonious Monk - The Complete London Collection (1999) [FLAC] {3 Vol}\Vol 1\05 - Meet Me Tonight in Dreamland.wav
Peak level 68.6 %
Track quality 99.9 %
Test CRC BAE1ED27
Copy CRC BAE1ED27
Copy OK
Track 6
Filename D:\Fiamma\Thelonious Monk - The Complete London Collection (1999) [FLAC] {3 Vol}\Vol 1\06 - Nice Work If You Can Get It.wav
Peak level 87.9 %
Track quality 100.0 %
Test CRC F4CCCB37
Copy CRC F4CCCB37
Copy OK
Track 7
Filename D:\Fiamma\Thelonious Monk - The Complete London Collection (1999) [FLAC] {3 Vol}\Vol 1\07 - My Melancholy Baby.wav
Peak level 100.0 %
Track quality 100.0 %
Test CRC 80FF2840
Copy CRC 80FF2840
Copy OK
Track 8
Filename D:\Fiamma\Thelonious Monk - The Complete London Collection (1999) [FLAC] {3 Vol}\Vol 1\08 - Jackieng.wav
Pre-gap length 0:00:05.06
Peak level 100.0 %
Track quality 100.0 %
Test CRC DA0F730D
Copy CRC DA0F730D
Copy OK
Track 9
Filename D:\Fiamma\Thelonious Monk - The Complete London Collection (1999) [FLAC] {3 Vol}\Vol 1\09 - Loverman.wav
Peak level 100.0 %
Track quality 100.0 %
Test CRC 728F4A91
Copy CRC 728F4A91
Copy OK
Track 10
Filename D:\Fiamma\Thelonious Monk - The Complete London Collection (1999) [FLAC] {3 Vol}\Vol 1\10 - Blue Sphere.wav
Pre-gap length 0:00:03.49
Peak level 87.2 %
Track quality 100.0 %
Test CRC 5B2408F7
Copy CRC 5B2408F7
Copy OK
No errors occured
End of status report
=============
EAC extraction logfile from 16. May 2007, 21:24 for CD
Thelonious Monk / The Complete London Collection (Vol 2)
Used drive : PLEXTOR CD-R PX-230A Adapter: 1 ID: 0
Read mode : Secure with NO C2, accurate stream, disable cache
Read offset correction : 738
Overread into Lead-In and Lead-Out : No
Used output format : C:\Program Files\EAC\flac.exe (User Defined Encoder)
320 kBit/s
Additional command line options : -8 -V -T "artist=%a" -T "title=%t" -T "album=%g" -T "date=%y" -T "tracknumber=%n" -T "genre=%m" -T "comment=eac Flac 1.1.4 -8" %s
Other options :
Fill up missing offset samples with silence : Yes
Delete leading and trailing silent blocks : No
Installed external ASPI interface
Track 1
Filename D:\Fiamma\Thelonious Monk - The Complete London Collection (1999) [FLAC] {3 Vol}\Vol 2\01 - Evidence [Take 2].wav
Pre-gap length 0:00:02.00
Peak level 30.4 %
Track quality 100.0 %
Test CRC 125F9CDC
Copy CRC 125F9CDC
Copy OK
Track 2
Filename D:\Fiamma\Thelonious Monk - The Complete London Collection (1999) [FLAC] {3 Vol}\Vol 2\02 - Misterioso.wav
Pre-gap length 0:00:04.93
Peak level 42.7 %
Track quality 100.0 %
Test CRC 7EDB2A24
Copy CRC 7EDB2A24
Copy OK
Track 3
Filename D:\Fiamma\Thelonious Monk - The Complete London Collection (1999) [FLAC] {3 Vol}\Vol 2\03 - Crepuscule With Nellie [Take 4].wav
Pre-gap length 0:00:05.64
Peak level 22.9 %
Track quality 100.0 %
Test CRC 34509B47
Copy CRC 34509B47
Copy OK
Track 4
Filename D:\Fiamma\Thelonious Monk - The Complete London Collection (1999) [FLAC] {3 Vol}\Vol 2\04 - I Mean You.wav
Pre-gap length 0:00:05.13
Peak level 39.2 %
Track quality 100.0 %
Test CRC 377E4EA7
Copy CRC 377E4EA7
Copy OK
Track 5
Filename D:\Fiamma\Thelonious Monk - The Complete London Collection (1999) [FLAC] {3 Vol}\Vol 2\05 - Criss Cross.wav
Pre-gap length 0:00:04.56
Peak level 23.7 %
Track quality 100.0 %
Test CRC 846D2265
Copy CRC 846D2265
Copy OK
Track 6
Filename D:\Fiamma\Thelonious Monk - The Complete London Collection (1999) [FLAC] {3 Vol}\Vol 2\06 - Ruby My Dear.wav
Pre-gap length 0:00:04.89
Peak level 32.0 %
Track quality 100.0 %
Test CRC 2175E870
Copy CRC 2175E870
Copy OK
Track 7
Filename D:\Fiamma\Thelonious Monk - The Complete London Collection (1999) [FLAC] {3 Vol}\Vol 2\07 - Nutty [Take 2].wav
Pre-gap length 0:00:05.96
Peak level 33.1 %
Track quality 100.0 %
Test CRC 57F91E58
Copy CRC 57F91E58
Copy OK
Track 8
Filename D:\Fiamma\Thelonious Monk - The Complete London Collection (1999) [FLAC] {3 Vol}\Vol 2\08 - Hackensack.wav
Pre-gap length 0:00:04.49
Peak level 32.3 %
Track quality 100.0 %
Test CRC 1D7E8574
Copy CRC 1D7E8574
Copy OK
No errors occured
End of status report
============
EAC extraction logfile from 16. May 2007, 21:58 for CD
Thelonious Monk / The Complete London Collection (Vol 3)
Used drive : PLEXTOR CD-R PX-230A Adapter: 1 ID: 0
Read mode : Secure with NO C2, accurate stream, disable cache
Read offset correction : 738
Overread into Lead-In and Lead-Out : No
Used output format : C:\Program Files\EAC\flac.exe (User Defined Encoder)
320 kBit/s
Additional command line options : -8 -V -T "artist=%a" -T "title=%t" -T "album=%g" -T "date=%y" -T "tracknumber=%n" -T "genre=%m" -T "comment=eac Flac 1.1.4 -8" %s
Other options :
Fill up missing offset samples with silence : Yes
Delete leading and trailing silent blocks : No
Installed external ASPI interface
Track 1
Filename D:\Fiamma\Thelonious Monk - The Complete London Collection (1999) [FLAC] {3 Vol}\Vol 3\01 - Trinkle Tinkle (Take 2).wav
Pre-gap length 0:00:02.00
Peak level 88.8 %
Track quality 100.0 %
Test CRC 8F3A308C
Copy CRC 8F3A308C
Copy OK
Track 2
Filename D:\Fiamma\Thelonious Monk - The Complete London Collection (1999) [FLAC] {3 Vol}\Vol 3\02 - The Man I Love.wav
Peak level 88.2 %
Track quality 100.0 %
Test CRC 53DD440F
Copy CRC 53DD440F
Copy OK
Track 3
Filename D:\Fiamma\Thelonious Monk - The Complete London Collection (1999) [FLAC] {3 Vol}\Vol 3\03 - Something In Blue.wav
Peak level 94.5 %
Track quality 100.0 %
Test CRC D2C8E0B6
Copy CRC D2C8E0B6
Copy OK
Track 4
Filename D:\Fiamma\Thelonious Monk - The Complete London Collection (1999) [FLAC] {3 Vol}\Vol 3\04 - Introspection (Take 1).wav
Peak level 64.3 %
Track quality 100.0 %
Test CRC D18571D3
Copy CRC D18571D3
Copy OK
Track 5
Filename D:\Fiamma\Thelonious Monk - The Complete London Collection (1999) [FLAC] {3 Vol}\Vol 3\05 - Trinkle Tinkle (Take 1).wav
Peak level 88.7 %
Track quality 99.9 %
Test CRC DDD22503
Copy CRC DDD22503
Copy OK
Track 6
Filename D:\Fiamma\Thelonious Monk - The Complete London Collection (1999) [FLAC] {3 Vol}\Vol 3\06 - Crepuscule With Nellie (Take 3).wav
Peak level 80.6 %
Track quality 100.0 %
Test CRC 5060C3DF
Copy CRC 5060C3DF
Copy OK
Track 7
Filename D:\Fiamma\Thelonious Monk - The Complete London Collection (1999) [FLAC] {3 Vol}\Vol 3\07 - Nutty (Take 1).wav
Peak level 94.5 %
Track quality 100.0 %
Test CRC 07880A55
Copy CRC 07880A55
Copy OK
Track 8
Filename D:\Fiamma\Thelonious Monk - The Complete London Collection (1999) [FLAC] {3 Vol}\Vol 3\08 - Introspection (Take 3).wav
Peak level 94.5 %
Track quality 100.0 %
Test CRC 744C5950
Copy CRC 744C5950
Copy OK
Track 9
Filename D:\Fiamma\Thelonious Monk - The Complete London Collection (1999) [FLAC] {3 Vol}\Vol 3\09 - Hackensack (Take 1).wav
Peak level 94.5 %
Track quality 100.0 %
Test CRC 503180A6
Copy CRC 503180A6
Copy OK
Track 10
Filename D:\Fiamma\Thelonious Monk - The Complete London Collection (1999) [FLAC] {3 Vol}\Vol 3\10 - Evidence (Take 1).wav
Peak level 94.5 %
Track quality 99.9 %
Test CRC 6F9947D2
Copy CRC 6F9947D2
Copy OK
Track 11
Filename D:\Fiamma\Thelonious Monk - The Complete London Collection (1999) [FLAC] {3 Vol}\Vol 3\11 - Chordially (Improvisation).wav
Peak level 94.5 %
Track quality 99.9 %
Test CRC 642CEDCF
Copy CRC 642CEDCF
Copy OK
No errors occured
End of status report
Приватный Нет (DHT включён)
Хэш 4B9198D2377D08864B58A696F96D10D36AAFED8D
Размер 906.92 Мб (950,976,943 байт) » файлов: 61 [ Список файлов ]
Участники 0 раздают, 0 качают (0 участников всего)
Внешние участники 2 раздают, 1 качают (3 участников всего)
Скорость Сейчас никто не качает
17:48
34
RSS
Нет комментариев. Ваш будет первым!