Поиск

2008 Blick Bassy - Léman {World Connection ‎WC43079} [CD]

2008 Blick Bassy - Léman {World Connection ‎WC43079} [CD]
Треклист:

01 Africa 3:05
02 Maria 4:21
03 Massé 3:42
04 Nlal 4:31
05 Donalina 4:09
06 Sébénikoro 1:20
07 Nléla 3:02
08 Bolo 4:10
09 Mintaba 3:31
10 Yesu 3:57
11 Song Boum 1:11
12 Wè 2:52
13 Zappa 3:21
14 Ikou 3:42
15 Nkolmesseng 0:48

Состав:
  • Acoustic Guitar, Producer – Jean-Louis Solans
  • Arranged By – David Aubaille (tracks: 8, 10)
  • Bass Guitar – Guy Nsangue (tracks: 1, 2, 5, 7, 9, 10, 12, 13)
  • Cabasa [Calabash], Talking Drum [Tama] – Mohamadou Koné dit ‘Prince’ (tracks: 1 to 3, 5 to 13, 15)
  • Cajón, Percussion – Valerie Lobé* (tracks: 1 to 13, 15)
  • Design – Peter Boersma
  • Double Bass – Laurent Vernerey (tracks: 3, 4, 8, 14)
  • Engineer [Assistant Sound Engineer] – Saydou Tamboua
  • Executive Producer – FLAM
  • Flute, Melodica – David Aubaille
  • Kora – Sekou Kouyate
  • Lead Vocals, Backing Vocals, Choir, Guitar, Percussion – Blick Bassy
  • Mastered By – Greg Calbi
  • Photography By – Youri Lenquette
  • Producer, Mixed By – Jean Lamoot
  • Vocals – Fatoumata Diawara (tracks: 7)
  • Written-By, Composed By, Arranged By – Bassy Olama Blick
  • Xalam [Kamele Ngoni] – Haruna Samake
  • Xalam [N’goni] – Ganda

Жанр: Male Vocal, Soul, World Fusion, Ethnic Jazz
Страна-производитель диска: Netherlands
Год издания: 2008
Издатель (лейбл): World Connection
Номер по каталогу: WC43079
Страна: Cameroon
Аудиокодек: FLAC (*.flac)
Тип рипа: tracks+.cue
Битрейт аудио: lossless
Продолжительность: 00:47:43
Источник (релизер): вата (благодарности pastafaricubensis)
Наличие сканов в содержимом раздачи: front + back
Доп. информация: last.fm | MySpace | Официальный сайт
Уже в своей дебютной работе «Leman» (2008), выпущенной на лейбле «World Connection», молодой камерунский певец и гитарист Блик Бэсси проявил себя как самобытный музыкант с очень теплым и лиричным соул-вокалом.

Лог создания рипа
Exact Audio Copy V1.0 beta 2 from 29. April 2011
EAC extraction logfile from 31. May 2012, 0:27
Blick Bassy / Leman
Used drive  : SONY    DVD RW DW-U18A   Adapter: 0  ID: 0
Read mode               : Secure
Utilize accurate stream : Yes
Defeat audio cache      : Yes
Make use of C2 pointers : No
Read offset correction                      : 12
Overread into Lead-In and Lead-Out          : No
Fill up missing offset samples with silence : Yes
Delete leading and trailing silent blocks   : No
Null samples used in CRC calculations       : Yes
Used interface                              : Native Win32 interface for Win NT & 2000
Gap handling                                : Appended to previous track
Used output format              : User Defined Encoder
Selected bitrate                : 1024 kBit/s
Quality                         : High
Add ID3 tag                     : No
Command line compressor         : C:\Program Files\FLAC\flac.exe
Additional command line options : -8 -V -T "ARTIST=%artist%" -T "TITLE=%title%" -T "ALBUM=%albumtitle%" -T "DATE=%year%" -T "TRACKNUMBER=%tracknr%" -T "GENRE=%genre%" -T "PERFORMER=%albuminterpret%" -T "COMPOSER=%composer%" %haslyrics%--tag-from-file=LYRICS
TOC of the extracted CD
     Track |   Start  |  Length  | Start sector | End sector
    ---------------------------------------------------------
        1  |  0:00.00 |  3:04.45 |         0    |    13844
        2  |  3:04.45 |  4:21.34 |     13845    |    33453
        3  |  7:26.04 |  3:41.65 |     33454    |    50093
        4  | 11:07.69 |  4:31.12 |     50094    |    70430
        5  | 15:39.06 |  4:09.03 |     70431    |    89108
        6  | 19:48.09 |  1:19.55 |     89109    |    95088
        7  | 21:07.64 |  3:01.54 |     95089    |   108717
        8  | 24:09.43 |  4:09.65 |    108718    |   127457
        9  | 28:19.33 |  3:31.32 |    127458    |   143314
       10  | 31:50.65 |  3:56.73 |    143315    |   161087
       11  | 35:47.63 |  1:11.34 |    161088    |   166446
       12  | 36:59.22 |  2:52.24 |    166447    |   179370
       13  | 39:51.46 |  3:21.27 |    179371    |   194472
       14  | 43:12.73 |  3:41.70 |    194473    |   211117
       15  | 46:54.68 |  0:47.62 |    211118    |   214704
Track  1
     Filename C:\pastafari\Blick Bassy - Leman (2008) [FLAC]\01 - Africa.wav
     Pre-gap length  0:00:02.00
     Peak level 96.4 %
     Extraction speed 8.8 X
     Track quality 99.9 %
     Test CRC 9B80209A
     Copy CRC 9B80209A
     Track not present in AccurateRip database
     Copy OK
Track  2
     Filename C:\pastafari\Blick Bassy - Leman (2008) [FLAC]\02 - Maria.wav
     Peak level 97.5 %
     Extraction speed 11.9 X
     Track quality 100.0 %
     Test CRC A9D2C997
     Copy CRC A9D2C997
     Track not present in AccurateRip database
     Copy OK
Track  3
     Filename C:\pastafari\Blick Bassy - Leman (2008) [FLAC]\03 - Masse.wav
     Pre-gap length  0:00:01.78
     Peak level 95.0 %
     Extraction speed 12.7 X
     Track quality 100.0 %
     Test CRC 825D880F
     Copy CRC 825D880F
     Cannot be verified as accurate (confidence 1)  [A4B448A0], AccurateRip returned [5A11D464]  (AR v2)
     Copy OK
Track  4
     Filename C:\pastafari\Blick Bassy - Leman (2008) [FLAC]\04 - Nlal.wav
     Pre-gap length  0:00:02.09
     Peak level 94.2 %
     Extraction speed 13.7 X
     Track quality 100.0 %
     Test CRC 519B883E
     Copy CRC 519B883E
     Track not present in AccurateRip database
     Copy OK
Track  5
     Filename C:\pastafari\Blick Bassy - Leman (2008) [FLAC]\05 - Donalina.wav
     Peak level 96.0 %
     Extraction speed 14.3 X
     Track quality 100.0 %
     Test CRC 7EF4CDAF
     Copy CRC 7EF4CDAF
     Track not present in AccurateRip database
     Copy OK
Track  6
     Filename C:\pastafari\Blick Bassy - Leman (2008) [FLAC]\06 - Sebenikoro.wav
     Peak level 93.2 %
     Extraction speed 12.9 X
     Track quality 100.0 %
     Test CRC 2AC3FF69
     Copy CRC 2AC3FF69
     Cannot be verified as accurate (confidence 1)  [9F9B4477], AccurateRip returned [1A96E638]  (AR v2)
     Copy OK
Track  7
     Filename C:\pastafari\Blick Bassy - Leman (2008) [FLAC]\07 - Nlela.wav
     Peak level 95.8 %
     Extraction speed 14.6 X
     Track quality 100.0 %
     Test CRC F58C5508
     Copy CRC F58C5508
     Track not present in AccurateRip database
     Copy OK
Track  8
     Filename C:\pastafari\Blick Bassy - Leman (2008) [FLAC]\08 - Bolo.wav
     Peak level 95.1 %
     Extraction speed 15.4 X
     Track quality 100.0 %
     Test CRC 92C03483
     Copy CRC 92C03483
     Cannot be verified as accurate (confidence 1)  [EC08F346], AccurateRip returned [CD9F45C6]  (AR v2)
     Copy OK
Track  9
     Filename C:\pastafari\Blick Bassy - Leman (2008) [FLAC]\09 - Mintaba.wav
     Peak level 95.6 %
     Extraction speed 15.8 X
     Track quality 100.0 %
     Test CRC 735316D5
     Copy CRC 735316D5
     Track not present in AccurateRip database
     Copy OK
Track 10
     Filename C:\pastafari\Blick Bassy - Leman (2008) [FLAC]\10 - Yesu.wav
     Peak level 94.5 %
     Extraction speed 16.1 X
     Track quality 100.0 %
     Test CRC DA66DB5E
     Copy CRC DA66DB5E
     Cannot be verified as accurate (confidence 1)  [843B6B8A], AccurateRip returned [1CAE9580]  (AR v2)
     Copy OK
Track 11
     Filename C:\pastafari\Blick Bassy - Leman (2008) [FLAC]\11 - Song Boum.wav
     Peak level 89.7 %
     Extraction speed 12.3 X
     Track quality 100.0 %
     Test CRC 189BB599
     Copy CRC 189BB599
     Cannot be verified as accurate (confidence 1)  [D9F7D62B], AccurateRip returned [65F078FB]  (AR v2)
     Copy OK
Track 12
     Filename C:\pastafari\Blick Bassy - Leman (2008) [FLAC]\12 - We.wav
     Peak level 94.1 %
     Extraction speed 12.8 X
     Track quality 99.9 %
     Test CRC 64D0EEE8
     Copy CRC 64D0EEE8
     Cannot be verified as accurate (confidence 1)  [CC3D40FF], AccurateRip returned [F4AC756C]  (AR v2)
     Copy OK
Track 13
     Filename C:\pastafari\Blick Bassy - Leman (2008) [FLAC]\13 - Zappa.wav
     Pre-gap length  0:00:01.42
     Peak level 94.3 %
     Extraction speed 16.6 X
     Track quality 100.0 %
     Test CRC 23308966
     Copy CRC 23308966
     Cannot be verified as accurate (confidence 1)  [78D6DAA3], AccurateRip returned [76E79555]  (AR v2)
     Copy OK
Track 14
     Filename C:\pastafari\Blick Bassy - Leman (2008) [FLAC]\14 - Ikou.wav
     Peak level 98.1 %
     Extraction speed 17.1 X
     Track quality 100.0 %
     Test CRC 453B53D3
     Copy CRC 453B53D3
     Cannot be verified as accurate (confidence 1)  [60CFDFF2], AccurateRip returned [9F0D8524]  (AR v2)
     Copy OK
Track 15
     Filename C:\pastafari\Blick Bassy - Leman (2008) [FLAC]\15 - Nkolmesseng.wav
     Peak level 89.9 %
     Extraction speed 3.9 X
     Track quality 99.7 %
     Test CRC 8832D19D
     Copy CRC 8832D19D
     Cannot be verified as accurate (confidence 1)  [608E8DE0], AccurateRip returned [6D9AF065]  (AR v2)
     Copy OK
 9 track(s) could not be verified as accurate
 6 track(s) not present in the AccurateRip database
No tracks could be verified as accurate
You may have a different pressing from the one(s) in the database
No errors occurred
End of status report
==== Log checksum 45F6186C765E0D871C893D60DC0366B69366C6E6E5148E81A3CA4EAFD5E870EA ====
Содержание индексной карты (.CUE)
REM GENRE Afro
REM DATE 2008
REM DISCID CF0B2E0F
REM COMMENT "ExactAudioCopy v1.0b2"
PERFORMER "Blick Bassy"
TITLE "Leman"
FILE "01 - Africa.wav" WAVE
  TRACK 01 AUDIO
    TITLE "Africa"
    PERFORMER "Blick Bassy"
    ISRC 5@40=3600473
    INDEX 01 00:00:00
FILE "02 - Maria.wav" WAVE
  TRACK 02 AUDIO
    TITLE "Maria"
    PERFORMER "Blick Bassy"
    ISRC 5@40=3600473
    INDEX 01 00:00:00
  TRACK 03 AUDIO
    TITLE "Masse"
    PERFORMER "Blick Bassy"
    ISRC 5@40=3600473
    INDEX 00 04:19:50
FILE "03 - Masse.wav" WAVE
    INDEX 01 00:00:00
  TRACK 04 AUDIO
    TITLE "Nlal"
    PERFORMER "Blick Bassy"
    ISRC 5@40=3600473
    INDEX 00 03:39:58
FILE "04 - Nlal.wav" WAVE
    INDEX 01 00:00:00
FILE "05 - Donalina.wav" WAVE
  TRACK 05 AUDIO
    TITLE "Donalina"
    PERFORMER "Blick Bassy"
    ISRC 5@40=3600473
    INDEX 01 00:00:00
FILE "06 - Sebenikoro.wav" WAVE
  TRACK 06 AUDIO
    TITLE "Sebenikoro"
    PERFORMER "Blick Bassy"
    ISRC 5@40=3600473
    INDEX 01 00:00:00
FILE "07 - Nlela.wav" WAVE
  TRACK 07 AUDIO
    TITLE "Nlela"
    PERFORMER "Blick Bassy"
    ISRC 5@40=3600473
    INDEX 01 00:00:00
FILE "08 - Bolo.wav" WAVE
  TRACK 08 AUDIO
    TITLE "Bolo"
    PERFORMER "Blick Bassy"
    ISRC 5@40=3600473
    INDEX 01 00:00:00
FILE "09 - Mintaba.wav" WAVE
  TRACK 09 AUDIO
    TITLE "Mintaba"
    PERFORMER "Blick Bassy"
    ISRC 5@40=3600473
    INDEX 01 00:00:00
FILE "10 - Yesu.wav" WAVE
  TRACK 10 AUDIO
    TITLE "Yesu"
    PERFORMER "Blick Bassy"
    ISRC 5@40=3600473
    INDEX 01 00:00:00
FILE "11 - Song Boum.wav" WAVE
  TRACK 11 AUDIO
    TITLE "Song Boum"
    PERFORMER "Blick Bassy"
    ISRC 5@40=3600473
    INDEX 01 00:00:00
FILE "12 - We.wav" WAVE
  TRACK 12 AUDIO
    TITLE "We"
    PERFORMER "Blick Bassy"
    ISRC 5@40=3600473
    INDEX 01 00:00:00
  TRACK 13 AUDIO
    TITLE "Zappa"
    PERFORMER "Blick Bassy"
    ISRC 5@40=3600473
    INDEX 00 02:50:67
FILE "13 - Zappa.wav" WAVE
    INDEX 01 00:00:00
FILE "14 - Ikou.wav" WAVE
  TRACK 14 AUDIO
    TITLE "Ikou"
    PERFORMER "Blick Bassy"
    ISRC 5@40=3600473
    INDEX 01 00:00:00
FILE "15 - Nkolmesseng.wav" WAVE
  TRACK 15 AUDIO
    TITLE "Nkolmesseng"
    PERFORMER "Blick Bassy"
    ISRC 5@40=3600473
    INDEX 01 00:00:00
11:01
705
Нет комментариев. Ваш будет первым!