Вы используете незарегистрированную версию компонента "Вкладки"!

Поиск

2007 Niki King & Marcus Ford - Twelve O'Clock Tales {Master Music} [DST64]

2007 Niki King & Marcus Ford - Twelve O'Clock Tales {Master Music} [DST64]
Стили:
Доп. инфо:

Формат записи/Источник записи: [SACD-R][OF]
Наличие водяных знаков: Нет
Год издания/переиздания диска: 2006/2007
Издатель (лейбл): Master Music
Продолжительность: 00:46:06
Наличие сканов в содержимом раздачи: Да (сканы)

Контейнер: ISO (*.iso)
Тип рипа: image
Разрядность: 64(2,8 MHz/1 Bit)
Формат: DST64
Количество каналов: 2.0

Источник (релизер): http://www.yes24.com/Product/Goods/30381690
https://www.sa-cd.net/showtitle/6271

Лог проверки качества
foobar2000 1.4.8 / Замер динамического диапазона (DR) 1.1.1
Дата отчёта:  2019-11-21 19:27:58

--------------------------------------------------------------------------------
Анализ:   Niki King/Marcus Ford / Twelve O'Clock Tales
--------------------------------------------------------------------------------

DR         Пики         RMS           Продолжительность трека
--------------------------------------------------------------------------------
DR10      -7.17 дБ   -21.03 дБ      4:04 01-Tenderly
DR9       -7.15 дБ   -19.96 дБ      2:56 02-When Sunny Gets Blue
DR10      -7.17 дБ   -20.93 дБ      2:48 03-Always On My Mind
DR9       -6.87 дБ   -20.20 дБ      3:18 04-Here's That Rainy Day
DR10      -8.72 дБ   -23.26 дБ      4:41 05-Dindi
DR13      -6.99 дБ   -24.82 дБ      3:37 06-Lush Life
DR8       -6.49 дБ   -17.83 дБ      2:20 07-In The Name Of Love
DR10      -8.05 дБ   -21.78 дБ      2:29 08-My Shinning Star
DR9       -6.91 дБ   -22.44 дБ      3:14 09-Until It's Time For You To Go
DR10      -6.62 дБ   -21.97 дБ      3:31 10-Lately
DR9       -7.22 дБ   -21.77 дБ      4:57 11-Round Midnight
DR8       -6.91 дБ   -19.95 дБ      2:44 12-My Man
DR12      -6.44 дБ   -21.41 дБ      2:50 13-Once I Loved
DR10      -6.55 дБ   -20.78 дБ      2:37 14-Amazing Grace
--------------------------------------------------------------------------------

Количество треков: 14
Реальные значения DR: DR10

Частота:   2822400 Гц / Частота PCM: 88200 Гц
Каналов:   2
Разрядность:   1
Битрейт:   5645 кбит/с
Кодек:   DST64
================================================================================
Any questions - support@pro-jazz.com. Есть вопросы - support@pro-jazz.com
15:08
283
Нет комментариев. Ваш будет первым!