Вы используете незарегистрированную версию компонента "Вкладки"!

Поиск

1962 Paul Desmond with Strings - Desmond Blue (2014) {HDTT} [DSD128]

1962 Paul Desmond with Strings - Desmond Blue (2014) {HDTT} [DSD128]
Стили:
Доп. инфо:

Формат записи/Источник записи: [DSD][OF]
Наличие водяных знаков: Нет
Год издания/переиздания диска: 1962/2014
Издатель (лейбл): High Definition Tape Transfers
Продолжительность: 00:37:31
Наличие сканов в содержимом раздачи: Буклет PDF

Контейнер: DSF (*.dsf)
Тип рипа: tracks
Разрядность: 128(5,6 MHz/1 Bit)
Формат: DSD
Количество каналов: 2.0

Источник (релизер): https://www.highdeftapetransfers.com/products/desmond-blue

Лог проверки качества
foobar2000 1.4.8 / Замер динамического диапазона (DR) 1.1.1
Дата отчёта:  2019-11-23 15:00:48

--------------------------------------------------------------------------------
Анализ:   Paul Desmond Alto Saxophonist with Strings / Desmond Blue
--------------------------------------------------------------------------------

DR         Пики         RMS           Продолжительность трека
--------------------------------------------------------------------------------
DR8       -8.02 дБ   -19.64 дБ      3:54 01-My Funny Valentine
DR9       -8.91 дБ   -20.79 дБ      3:41 02-Desmond Blue
DR9       -7.73 дБ   -18.56 дБ      4:08 03-Then I'll Be Tired of You
DR9       -6.96 дБ   -19.33 дБ      4:42 04-I've Got You Under My Skin
DR8       -9.55 дБ   -20.24 дБ      4:12 05-Late Lament
DR10      -6.01 дБ   -20.76 дБ      3:52 06-I Should Care
DR9       -8.09 дБ   -19.69 дБ      4:13 07-Like Someone in Love
DR9       -6.17 дБ   -19.51 дБ      3:52 08-Ill Wind
DR9       -6.02 дБ   -19.79 дБ      4:57 09-Body and Soul
--------------------------------------------------------------------------------

Количество треков: 9
Реальные значения DR: DR9

Частота:   5644800 Гц / Частота PCM: 176400 Гц
Каналов:   2
Разрядность:   1
Битрейт:   11290 кбит/с
Кодек:   DSD128
================================================================================
Any questions - support@pro-jazz.com. Есть вопросы - support@pro-jazz.com
16:59
244
Нет комментариев. Ваш будет первым!