Вы используете незарегистрированную версию компонента "Вкладки"!

Поиск

2007 Knoxville Jazz Orchestra - Blues Man from Memphis {Blue Canoe} [CD]

2007 Knoxville Jazz Orchestra - Blues Man from Memphis {Blue Canoe} [CD]
Стили:
Дата записи диска:
7 сентября 2005
Место записи:
James R. Cox Memorial Auditorium; Weird Monkey Studios
Доп. инфо:

Носитель: CD
Страна-производитель диска (релиза): США
Год издания: 2007
Издатель (лейбл): Blue Canoe Records
Номер по каталогу: BC1040
Аудиокодек: FLAC (*.flac)
Тип рипа: tracks+.cue
Продолжительность: 01:09:38
Источник: Yungin
Наличие сканов в содержимом раздачи: нет

Лог создания рипа
Exact Audio Copy V1.5 from 20. February 2020

EAC extraction logfile from 16. August 2020, 21:28

Knoxville Jazz Orchestra Featuring Donald Brown / Blues Man From Memphis

Used drive  : PHILIPS CDRW/DVD SCB5265   Adapter: 1  ID: 0

Read mode               : Secure
Utilize accurate stream : Yes
Defeat audio cache      : Yes
Make use of C2 pointers : No

Read offset correction                      : 6
Overread into Lead-In and Lead-Out          : No
Fill up missing offset samples with silence : Yes
Delete leading and trailing silent blocks   : No
Null samples used in CRC calculations       : Yes
Used interface                              : Native Win32 interface for Win NT & 2000
Gap handling                                : Appended to previous track

Used output format              : User Defined Encoder
Selected bitrate                : 1024 kBit/s
Quality                         : High
Add ID3 tag                     : No
Command line compressor         : C:\Program Files (x86)\Exact Audio Copy\Flac\flac.exe
Additional command line options : -8 -V -T "ARTIST=%artist%" -T "TITLE=%title%" -T "ALBUM=%albumtitle%" -T "DATE=%year%" -T "TRACKNUMBER=%tracknr%" -T "GENRE=%genre%" -T "PERFORMER=%albuminterpret%" -T "COMPOSER=%composer%" -T "ALBUMARTIST=%albumartist%" -T "DISCNUMBER=%cdnumber%" -T "TOTALDISCS=%totalcds%" -T "TOTALTRACKS=%numtracks%" -T "COMMENT=%comment%" %source% -o %dest%

TOC of the extracted CD

     Track |   Start  |  Length  | Start sector | End sector
    ---------------------------------------------------------
        1  |  0:00.00 |  9:27.11 |         0    |    42535
        2  |  9:27.11 |  8:56.37 |     42536    |    82772
        3  | 18:23.48 |  7:23.55 |     82773    |   116052
        4  | 25:47.28 |  7:20.19 |    116053    |   149071
        5  | 33:07.47 |  8:56.68 |    149072    |   189339
        6  | 42:04.40 |  9:20.28 |    189340    |   231367
        7  | 51:24.68 |  7:25.55 |    231368    |   264797
        8  | 58:50.48 | 10:48.02 |    264798    |   313399

Track  1

     Filename Z:\Music\Knoxville Jazz Orchestra Featuring Donald Brown - Blues Man From Memphis (2007) [FLAC] {BC1040}\01 - Nancy and the Children's Playground.wav

     Pre-gap length  0:00:02.00

     Peak level 84.1 %
     Extraction speed 3.4 X
     Track quality 100.0 %
     Test CRC 873E384E
     Copy CRC 873E384E
     Accurately ripped (confidence 2)  [0387A20E]  (AR v1)
     Copy OK

Track  2

     Filename Z:\Music\Knoxville Jazz Orchestra Featuring Donald Brown - Blues Man From Memphis (2007) [FLAC] {BC1040}\02 - Blues for Brother Jerome.wav

     Peak level 99.7 %
     Extraction speed 3.7 X
     Track quality 99.9 %
     Test CRC 174ED9A6
     Copy CRC 174ED9A6
     Accurately ripped (confidence 2)  [F810C2C6]  (AR v1)
     Copy OK

Track  3

     Filename Z:\Music\Knoxville Jazz Orchestra Featuring Donald Brown - Blues Man From Memphis (2007) [FLAC] {BC1040}\03 - Theme for Malcolm.wav

     Pre-gap length  0:00:02.49

     Peak level 99.5 %
     Extraction speed 4.5 X
     Track quality 100.0 %
     Test CRC 3D31D4DE
     Copy CRC 3D31D4DE
     Accurately ripped (confidence 2)  [589D27F2]  (AR v1)
     Copy OK

Track  4

     Filename Z:\Music\Knoxville Jazz Orchestra Featuring Donald Brown - Blues Man From Memphis (2007) [FLAC] {BC1040}\04 - Daddy's Girl Cynthia.wav

     Peak level 86.9 %
     Extraction speed 4.9 X
     Track quality 100.0 %
     Test CRC D1313884
     Copy CRC D1313884
     Accurately ripped (confidence 2)  [25DE4A05]  (AR v1)
     Copy OK

Track  5

     Filename Z:\Music\Knoxville Jazz Orchestra Featuring Donald Brown - Blues Man From Memphis (2007) [FLAC] {BC1040}\05 - New York.wav

     Peak level 99.5 %
     Extraction speed 5.4 X
     Track quality 100.0 %
     Test CRC 3FC66986
     Copy CRC 3FC66986
     Accurately ripped (confidence 2)  [B4236151]  (AR v1)
     Copy OK

Track  6

     Filename Z:\Music\Knoxville Jazz Orchestra Featuring Donald Brown - Blues Man From Memphis (2007) [FLAC] {BC1040}\06 - The Scenic Route to Donny's Heart.wav

     Pre-gap length  0:00:02.57

     Peak level 100.0 %
     Extraction speed 5.3 X
     Track quality 99.9 %
     Test CRC 96D410B6
     Copy CRC 96D410B6
     Accurately ripped (confidence 2)  [B408A691]  (AR v1)
     Copy OK

Track  7

     Filename Z:\Music\Knoxville Jazz Orchestra Featuring Donald Brown - Blues Man From Memphis (2007) [FLAC] {BC1040}\07 - The Thing About George Coleman.wav

     Peak level 99.6 %
     Extraction speed 6.1 X
     Track quality 100.0 %
     Test CRC 101931A5
     Copy CRC 101931A5
     Accurately ripped (confidence 2)  [D6A43B3C]  (AR v1)
     Copy OK

Track  8

     Filename Z:\Music\Knoxville Jazz Orchestra Featuring Donald Brown - Blues Man From Memphis (2007) [FLAC] {BC1040}\08 - Peace for Zim.wav

     Peak level 99.6 %
     Extraction speed 6.6 X
     Track quality 100.0 %
     Test CRC 00F1BDF3
     Copy CRC 00F1BDF3
     Accurately ripped (confidence 2)  [773AEE77]  (AR v1)
     Copy OK

All tracks accurately ripped

No errors occurred

End of status report

---- CUETools DB Plugin V2.1.6

[CTDB TOCID: Qs3rIxd9OamRbyeMii1vPwadnk8-] disk not present in database
Submit result: Qs3rIxd9OamRbyeMii1vPwadnk8- has been uploaded

==== Log checksum 7F02A8AE2FC212CB4C5EE7A16499A39B9C81BD695148E1CCD1CFA66961B382D8 ====
Содержание индексной карты (.CUE)
REM GENRE Jazz
REM DATE 2007
REM DISCID 78105208
REM COMMENT "ExactAudioCopy v1.5"
PERFORMER "Knoxville Jazz Orchestra"
TITLE "Blues Man from Memphis"
FILE "01 - Nancy and the Children's Playground.wav" WAVE
  TRACK 01 AUDIO
    TITLE "Nancy and the Children's Playground"
    PERFORMER "Knoxville Jazz Orchestra"
    INDEX 01 00:00:00
FILE "02 - Blues for Brother Jerome.wav" WAVE
  TRACK 02 AUDIO
    TITLE "Blues for Brother Jerome"
    PERFORMER "Knoxville Jazz Orchestra"
    INDEX 01 00:00:00
  TRACK 03 AUDIO
    TITLE "Theme for Malcolm"
    PERFORMER "Knoxville Jazz Orchestra"
    INDEX 00 08:54:00
FILE "03 - Theme for Malcolm.wav" WAVE
    INDEX 01 00:00:00
FILE "04 - Daddy's Girl Cynthia.wav" WAVE
  TRACK 04 AUDIO
    TITLE "Daddy's Girl Cynthia"
    PERFORMER "Knoxville Jazz Orchestra"
    INDEX 01 00:00:00
FILE "05 - New York.wav" WAVE
  TRACK 05 AUDIO
    TITLE "New York"
    PERFORMER "Knoxville Jazz Orchestra"
    INDEX 01 00:00:00
  TRACK 06 AUDIO
    TITLE "The Scenic Route to Donny's Heart"
    PERFORMER "Knoxville Jazz Orchestra"
    INDEX 00 08:54:25
FILE "06 - The Scenic Route to Donny's Heart.wav" WAVE
    INDEX 01 00:00:00
FILE "07 - The Thing About George Coleman.wav" WAVE
  TRACK 07 AUDIO
    TITLE "The Thing About George Coleman"
    PERFORMER "Knoxville Jazz Orchestra"
    INDEX 01 00:00:00
FILE "08 - Peace for Zim.wav" WAVE
  TRACK 08 AUDIO
    TITLE "Peace for Zim"
    PERFORMER "Knoxville Jazz Orchestra"
    INDEX 01 00:00:00
Лог проверки качества
[CUETools log; Date: 26.08.2020 12:48:25; Version: 2.1.6]
[CTDB TOCID: Qs3rIxd9OamRbyeMii1vPwadnk8-] found.
Track | CTDB Status
  1   | (1/1) Accurately ripped
  2   | (1/1) Accurately ripped
  3   | (1/1) Accurately ripped
  4   | (1/1) Accurately ripped
  5   | (1/1) Accurately ripped
  6   | (1/1) Accurately ripped
  7   | (1/1) Accurately ripped
  8   | (1/1) Accurately ripped
[AccurateRip ID: 0015331c-008cf43c-78105208] found.
Track   [  CRC   |   V2   ] Status
 01     [0387a20e|a04b75d9] (2+0/2) Accurately ripped
 02     [f810c2c6|0a4af249] (2+0/2) Accurately ripped
 03     [589d27f2|1e6e56f1] (2+0/2) Accurately ripped
 04     [25de4a05|3d4df822] (2+0/2) Accurately ripped
 05     [b4236151|923b2623] (2+0/2) Accurately ripped
 06     [b408a691|10435bdf] (2+0/2) Accurately ripped
 07     [d6a43b3c|2a08b975] (2+0/2) Accurately ripped
 08     [773aee77|84c21d42] (2+0/2) Accurately ripped

Track Peak [ CRC32  ] [W/O NULL] [  LOG   ]
 --  100,0 [DB61600B] [906BCA60]
 01   84,1 [873E384E] [C5BDB6A5]   CRC32
 02   99,7 [174ED9A6] [42259C6F]   CRC32
 03   99,5 [3D31D4DE] [7AFCA6C7]   CRC32
 04   86,9 [D1313884] [69A6BC12]   CRC32
 05   99,5 [3FC66986] [424378F9]   CRC32
 06  100,0 [96D410B6] [1B21A81E]   CRC32
 07   99,6 [101931A5] [A0ABB28D]   CRC32
 08   99,6 [00F1BDF3] [94C617B2]   CRC32
Any questions - support@pro-jazz.com. Есть вопросы - support@pro-jazz.com
18:00
120
Нет комментариев. Ваш будет первым!