Поиск

2007 Grant Green, Jimmy Forrest - First Recordings {Gambit 69268} [WEB]

2007 Grant Green, Jimmy Forrest - First Recordings {Gambit 69268} [WEB]
Стили:
Дата записи диска:
10 декабря и 12 декабря 1959
Дата издания диска:
5 февраля 2007
Номер по каталогу:
69268
Носитель:
WEB
Тип рипа:
tracks+.cue
Аудиокодек:
FLAC (*.flac)
Битрейт аудио:
lossless
Время звучания:
01:16:51
Наличие сканов:
web
Релизёр (источник):
M0p94ok
Лог создания рипа
Exact Audio Copy V0.99 prebeta 4 from 23. January 2008
EAC extraction logfile from 11. June 2009, 17:09
Grant Green / First Recordings
Used drive : PLEXTOR DVDR PX-810SA Adapter: 3 ID: 1
Read mode : Secure
Utilize accurate stream : Yes
Defeat audio cache : Yes
Make use of C2 pointers : No
Read offset correction : 48
Overread into Lead-In and Lead-Out : No
Fill up missing offset samples with silence : Yes
Delete leading and trailing silent blocks : No
Null samples used in CRC calculations : Yes
Used interface : Native Win32 interface for Win NT & 2000
Gap handling : Appended to previous track
Used output format : User Defined Encoder
Selected bitrate : 128 kBit/s
Quality : High
Add ID3 tag : No
Command line compressor : C:\Archivos de programa\Exact Audio Copy\Flac\flac.exe
Additional command line options : -8 -V -T "artist=%a" -T "title=%t" -T "album=%g" -T "date=%y" -T "tracknumber=%n" -T "genre=%m" %s
TOC of the extracted CD
Track | Start | Length | Start sector | End sector
---------------------------------------------------------
1 | 0:00.00 | 4:41.52 | 0 | 21126
2 | 4:41.52 | 4:18.32 | 21127 | 40508
3 | 9:00.09 | 9:24.12 | 40509 | 82820
4 | 18:24.21 | 4:46.52 | 82821 | 104322
5 | 23:10.73 | 5:18.37 | 104323 | 128209
6 | 28:29.35 | 6:42.17 | 128210 | 158376
7 | 35:11.52 | 5:33.42 | 158377 | 183393
8 | 40:45.19 | 4:44.37 | 183394 | 204730
9 | 45:29.56 | 5:53.12 | 204731 | 231217
10 | 51:22.68 | 6:35.47 | 231218 | 260889
11 | 57:58.40 | 5:19.12 | 260890 | 284826
12 | 63:17.52 | 3:01.22 | 284827 | 298423
13 | 66:18.74 | 6:03.22 | 298424 | 325670
14 | 72:22.21 | 2:24.27 | 325671 | 336497
15 | 74:46.48 | 2:10.07 | 336498 | 346254
Track 1
Filename C:\audio-rips\01 - Dog It.wav
Pre-gap length 0:00:02.00
Peak level 96.8 %
Track quality 100.0 %
Test CRC EBF253F3
Copy CRC EBF253F3
Accurately ripped (confidence 4) [4CA18125]
Copy OK
Track 2
Filename C:\audio-rips\02 - But Beautiful.wav
Peak level 74.7 %
Track quality 100.0 %
Test CRC A5F762DF
Copy CRC A5F762DF
Accurately ripped (confidence 4) [6C1C85BB]
Copy OK
Track 3
Filename C:\audio-rips\03 - Caravan.wav
Peak level 96.1 %
Track quality 99.9 %
Test CRC 38142DE1
Copy CRC 38142DE1
Accurately ripped (confidence 4) [0AACE71D]
Copy OK
Track 4
Filename C:\audio-rips\04 - All The Gin Is Gone.wav
Peak level 99.2 %
Track quality 100.0 %
Test CRC 94DFFFC0
Copy CRC 94DFFFC0
Accurately ripped (confidence 4) [3E80C4D9]
Copy OK
Track 5
Filename C:\audio-rips\05 - Sunkenfoal.wav
Peak level 96.2 %
Track quality 100.0 %
Test CRC 5D5C7F50
Copy CRC 5D5C7F50
Accurately ripped (confidence 4) [EFF0C701]
Copy OK
Track 6
Filename C:\audio-rips\06 - Laura.wav
Peak level 96.0 %
Track quality 100.0 %
Test CRC 728DD364
Copy CRC 728DD364
Accurately ripped (confidence 4) [3533C140]
Copy OK
Track 7
Filename C:\audio-rips\07 - Myra.wav
Peak level 96.1 %
Track quality 100.0 %
Test CRC 03D470CB
Copy CRC 03D470CB
Accurately ripped (confidence 4) [39BC3519]
Copy OK
Track 8
Filename C:\audio-rips\08 - All The Gin Is Gone (Alternate Take).wav
Peak level 98.5 %
Track quality 100.0 %
Test CRC F805575E
Copy CRC F805575E
Accurately ripped (confidence 4) [84E6DA73]
Copy OK
Track 9
Filename C:\audio-rips\09 - Sunkenfoal (Alternate Take).wav
Peak level 92.3 %
Track quality 100.0 %
Test CRC 25A8CB97
Copy CRC 25A8CB97
Accurately ripped (confidence 4) [F00D1727]
Copy OK
Track 10
Filename C:\audio-rips\10 - You Go To My Head.wav
Peak level 95.6 %
Track quality 100.0 %
Test CRC 753200A4
Copy CRC 753200A4
Accurately ripped (confidence 4) [4FC2785C]
Copy OK
Track 11
Filename C:\audio-rips\11 - Black Forrest.wav
Peak level 98.6 %
Track quality 100.0 %
Test CRC A7B59FC4
Copy CRC A7B59FC4
Accurately ripped (confidence 4) [484D33EC]
Copy OK
Track 12
Filename C:\audio-rips\12 - What's New .wav
Peak level 96.1 %
Track quality 99.9 %
Test CRC BAFEB053
Copy CRC BAFEB053
Accurately ripped (confidence 4) [28CF97A2]
Copy OK
Track 13
Filename C:\audio-rips\13 - These Foolish Things.wav
Peak level 85.8 %
Track quality 100.0 %
Test CRC D2F2D929
Copy CRC D2F2D929
Accurately ripped (confidence 4) [34149322]
Copy OK
Track 14
Filename C:\audio-rips\14 - Black Forrest (Alternate Take).wav
Peak level 98.0 %
Track quality 100.0 %
Test CRC B563A44D
Copy CRC B563A44D
Accurately ripped (confidence 4) [3DB73622]
Copy OK
Track 15
Filename C:\audio-rips\15 - What's New (Alternate Take).wav
Peak level 89.6 %
Track quality 100.0 %
Test CRC 737E88CF
Copy CRC 737E88CF
Accurately ripped (confidence 4) [F1884062]
Copy OK
All tracks accurately ripped
No errors occurred
End of status report
No seeders - write personal message to M0p94ok. Any questions - support@pro-jazz.com.
Нет сидеров - пишите в личку M0p94ok. Есть вопросы - support@pro-jazz.com
01:38
133
Нет комментариев. Ваш будет первым!