Вы используете незарегистрированную версию компонента "Вкладки"!

Поиск

2006 Nicholas Payton, Bob Belden, Sam Yahel, John Hart, Billy Drummond - Mysterious Shorter {Chesky} [CD]

2006 Nicholas Payton, Bob Belden, Sam Yahel, John Hart, Billy Drummond - Mysterious Shorter {Chesky} [CD]
Стили:
Дата записи диска:
19 апреля 2006
Место записи:
St. Peter's Episcopal Church, New York City, NY, USA
Издатель (лейбл):
Номер по каталогу:
CD321
Носитель:
WEB
Тип рипа:
tracks
Аудиокодек:
FLAC (*.flac)
Битрейт аудио:
lossless
Время звучания:
01:00:40
Наличие сканов:
буклет pdf
Страна-производитель диска (релиза):
USA
Релизёр (источник):
M0p94ok
Лог создания рипа
Exact Audio Copy V1.0 beta 2 from 29. April 2011

EAC extraction logfile from 4. June 2011, 0:30

Nicholas Payton, Bob Belden, Sam Yahel, John Hart, Billy Drummond / Mysterious Shorter

Used drive  : HL-DT-STDVD-RAM GSA-H55N   Adapter: 0  ID: 2

Read mode               : Secure
Utilize accurate stream : Yes
Defeat audio cache      : Yes
Make use of C2 pointers : No

Read offset correction                      : 102
Overread into Lead-In and Lead-Out          : Yes
Fill up missing offset samples with silence : Yes
Delete leading and trailing silent blocks   : No
Null samples used in CRC calculations       : Yes
Used interface                              : Installed external ASPI interface
Gap handling                                : Appended to previous track

Used output format              : User Defined Encoder
Selected bitrate                : 128 kBit/s
Quality                         : High
Add ID3 tag                     : No
Command line compressor         : G:\Program Files\Exact Audio Copy\Encoder\flac.exe
Additional command line options : -V -8 -T "Genre=%genre%" -T "Artist=%artist%" -T "Title=%title%" -T "Album=%albumtitle%" -T "Date=%year%" -T "Tracknumber=%tracknr%" -T "Comment=EAC1.0b2 FLAC -8" %source%


TOC of the extracted CD

     Track |   Start  |  Length  | Start sector | End sector 
    ---------------------------------------------------------
        1  |  0:00.00 |  8:43.10 |         0    |    39234   
        2  |  8:43.10 |  6:41.00 |     39235    |    69309   
        3  | 15:24.10 |  8:42.00 |     69310    |   108459   
        4  | 24:06.10 |  7:49.00 |    108460    |   143634   
        5  | 31:55.10 |  7:03.00 |    143635    |   175359   
        6  | 38:58.10 |  8:21.00 |    175360    |   212934   
        7  | 47:19.10 |  7:11.00 |    212935    |   245259   
        8  | 54:30.10 |  6:10.20 |    245260    |   273029   


Track  1

     Filename F:\WAV\01 - Montezuma.wav

     Pre-gap length  0:00:02.00

     Peak level 98.8 %
     Extraction speed 5.5 X
     Track quality 100.0 %
     Test CRC 2F34DAC8
     Copy CRC 2F34DAC8
     Accurately ripped (confidence 3)  [ADBE1B1B]  (AR v1)
     Copy OK

Track  2

     Filename F:\WAV\02 - Tom Thumb.wav

     Peak level 98.8 %
     Extraction speed 6.1 X
     Track quality 100.0 %
     Test CRC 4E3E4627
     Copy CRC 4E3E4627
     Accurately ripped (confidence 3)  [A231097E]  (AR v1)
     Copy OK

Track  3

     Filename F:\WAV\03 - Footprints.wav

     Peak level 98.8 %
     Extraction speed 6.9 X
     Track quality 100.0 %
     Test CRC B6EA4B87
     Copy CRC B6EA4B87
     Accurately ripped (confidence 3)  [DBD68250]  (AR v1)
     Copy OK

Track  4

     Filename F:\WAV\04 - Teru.wav

     Peak level 48.0 %
     Extraction speed 7.4 X
     Track quality 100.0 %
     Test CRC 6F4960C4
     Copy CRC 6F4960C4
     Accurately ripped (confidence 3)  [5D773C2F]  (AR v1)
     Copy OK

Track  5

     Filename F:\WAV\05 - Witch Hunt.wav

     Peak level 98.8 %
     Extraction speed 7.8 X
     Track quality 100.0 %
     Test CRC 22EE0F78
     Copy CRC 22EE0F78
     Accurately ripped (confidence 3)  [846B1A52]  (AR v1)
     Copy OK

Track  6

     Filename F:\WAV\06 - Masqalero.wav

     Peak level 98.8 %
     Extraction speed 7.7 X
     Track quality 99.9 %
     Test CRC 3BB3E2C0
     Copy CRC 3BB3E2C0
     Accurately ripped (confidence 3)  [2BBAC5CF]  (AR v1)
     Copy OK

Track  7

     Filename F:\WAV\07 - Beauty and the Beast.wav

     Peak level 95.0 %
     Extraction speed 8.5 X
     Track quality 100.0 %
     Test CRC FC3D3D16
     Copy CRC FC3D3D16
     Accurately ripped (confidence 3)  [B993AB66]  (AR v1)
     Copy OK

Track  8

     Filename F:\WAV\08 - Miyako.wav

     Peak level 43.7 %
     Extraction speed 6.7 X
     Track quality 100.0 %
     Test CRC BF19DC3D
     Copy CRC BF19DC3D
     Accurately ripped (confidence 3)  [BAD7C646]  (AR v1)
     Copy OK


All tracks accurately ripped

No errors occurred

End of status report

==== Log checksum 22DF7D96A08CCD7072B0A4745D16208953648BC7FCB80AF6151CDAE704B38007 ====
Any questions - support@pro-jazz.com. Есть вопросы - support@pro-jazz.com
10:25
266
Нет комментариев. Ваш будет первым!