Поиск

2006 Hank Jones - West of 5th {Chesky SACD 313}

2006 Hank Jones - West of 5th {Chesky SACD 313}
Страна-производитель диска (релиза):
USA
Дата записи диска:
29 января 2006
Дата издания диска:
24 октября 2006
Номер по каталогу:
SACD 313
Носитель:
CD
Битрейт аудио:
lossless
Аудиокодек:
APE (*.ape)
Тип рипа:
image+.cue
Время звучания:
62 : 17
Наличие сканов:
  • да
Релизёр (источник):
funny_horse
Треклист:

01. On Green Dolphin Street (Kaper, Bronislaw/Washington, Ned) 5:22
02. Mr. Walker (Montgomery, Wes) 4:25
03. Speak Low (Weill, Kurt/Nash, Ogden) 8:00
04. A Child Is Born (Jones, Thad) 5:27
05. If I Were a Bell (Loesser, Frank) 5:51
06. Billie's Bounce (Parker, Charlie) 5:18
07. Lotus Blossom (Strayhorn, Billy) 6:26
08. Confirmation (Parker, Charlie Jr.) 4:53
09. We'll Be Together Again (Laine, Frankie/Fisher, Carl) 6:52
10. Stella by Starlight (Young, Victor) 4:49
11. Eleanor (Cobb, Jimmy) 4:49

Состав:
  • David Chesky Audio Production, Producer
  • Norman Chesky Executive Producer
  • Jimmy Cobb Composer, Drums
  • Ira Gitler Liner Notes
  • Hank Jones Piano
  • Christian McBride Bass, Double Bass
  • Nicholas Prout Audio Engineer, Editing, Engineer, Mastering
Лог создания рипа
Exact Audio Copy V0.99 prebeta 3 from 28. July 2007

Отчёт EAC об извлечении, выполненном 25. января 2008, 21:35

Hank Jones - Christian McBride - Jimmy Cobb / West of 5th

Дисковод: TOSHIBA DVD-ROM SD-M1712 Adapter: 0 ID: 3

Режим чтения : Достоверность
Использование точного потока : Да
Отключение кэша аудио : Да
Использование указателей C2 : Нет

Коррекция смещения при чтении : -472
Способность читать области Lead-in и Lead-out : Нет
Заполнение пропущенных сэмплов тишиной : Да
Удаление блоков с тишиной в начале и конце : Нет
При вычислениях CRC использовались нулевые сэмплы : Да
Интерфейс : Установленный внешний ASPI-интерфейс

Выходной формат : Внутренние WAV-операции
Формат сэмплов : 44.100 Гц; 16 бит; стерео

TOC извлечённого CD

Трек | Старт | Длительность | Начальный сектор | Конечный сектор
---------------------------------------------------------------------
1 | 0:00.00 | 5:22.03 | 0 | 24152
2 | 5:22.03 | 4:25.70 | 24153 | 44097
3 | 9:47.73 | 8:00.00 | 44098 | 80097
4 | 17:47.73 | 5:27.71 | 80098 | 104693
5 | 23:15.69 | 5:51.07 | 104694 | 131025
6 | 29:07.01 | 5:18.04 | 131026 | 154879
7 | 34:25.05 | 6:26.66 | 154880 | 183895
8 | 40:51.71 | 4:53.09 | 183896 | 205879
9 | 45:45.05 | 6:52.72 | 205880 | 236851
10 | 52:38.02 | 4:49.68 | 236852 | 258594
11 | 57:27.70 | 4:49.52 | 258595 | 280321

Характеристики диапазона извлечения и сообщения об ошибках

Выбранный диапазон

Имя файла G:\My Docs 2\My Music 2\Hank Jones - Christian McBride - Jimmy Cobb - West of 5th\Hank Jones - Christian McBride - Jimmy Cobb - West of 5th.wav

Пиковый уровень 98.8 %
Качество диапазона 100.0 %
CRC копии 0FE2E6ED
Копирование... OK

Ошибок не произошло
Приватный:
Нет (DHT включён)
Размер:
320.48 Мб (336,047,645 байт) » файлов: 11
Участники:
1 раздают, 1 качают (2 участников всего)
Внешние участники:
5 раздают, 1 качают (6 участников всего) [ Обновить ]
21:30
94
RSS
Нет комментариев. Ваш будет первым!