Поиск

2004 Geri Allen - The Life of a Song {Telarc CD-83598}

2004 Geri Allen - The Life of a Song {Telarc CD-83598}
Стили:
Страна-производитель диска (релиза):
USA
Дата записи диска:
16-17 января 2004
Дата издания диска:
24 августа 2004
Издатель (лейбл):
Номер по каталогу:
CD-83598
Носитель:
CD
Битрейт аудио:
lossless
Аудиокодек:
APE (*.ape)
Тип рипа:
image+.cue
Время звучания:
65 : 30
Наличие сканов:
  • да
Релизёр (источник):
funny_horse
Треклист:

01. LWB's House (The Remix) 5:55
02. Mounts and Mountains 8:08
03. Lush Life 8:15
04. In Appreciation: A Celebration Song 6:13
05. The Experimental Movement 7:12
06. Holdin' Court 4:40
07. Dance of the Infidels 4:04
08. Unconditional Love 5:19
09. The Life of a Song 5:24
10. Black Bottom 4:33
11. Soul Eyes 5:40

Состав:
  • Geri Allen Arranger, Audio Production, Composer, Liner Notes, Piano, Producer
  • Clifton Anderson Trombone
  • Dwight Andrews Saxophone
  • Marcus Belgrave Flugelhorn
  • Michael Bishop Audio Engineer, Engineer, Mastering, Mixing
  • Jack DeJohnette Drums
  • Dave Holland Bass, Double Bass
  • Elaine Martone Audio Production, Producer
  • Ed Meitner Engineer
  • Dan Ouellette Liner Notes

Записано в Avatar Studios, Studio C, New York, NY

Лог создания рипа
Exact Audio Copy V0.99 prebeta 3 from 28. July 2007
Отчёт EAC об извлечении, выполненном 6. февраля 2008, 0:22
Geri Allen / The Life of a Song
Дисковод: TOSHIBA DVD-ROM SD-M1712 Adapter: 0 ID: 3
Режим чтения : Достоверность
Использование точного потока : Да
Отключение кэша аудио : Да
Использование указателей C2 : Нет
Коррекция смещения при чтении : -472
Способность читать области Lead-in и Lead-out : Нет
Заполнение пропущенных сэмплов тишиной : Да
Удаление блоков с тишиной в начале и конце : Нет
При вычислениях CRC использовались нулевые сэмплы : Да
Интерфейс : Установленный внешний ASPI-интерфейс
Выходной формат : Пользовательский кодировщик
Выбранный битрейт : 768 kBit/s
Качество : Высокий
Добавление ID3-тэга : Нет
Утилита сжатия : C:\Program Files\Exact Audio Copy\FLAC\FLAC.EXE
Дополнительные параметры : -6 -V -T "ARTIST=%a" -T "TITLE=%t" -T "ALBUM=%g" -T "DATE=%y" -T "TRACKNUMBER=%n" -T "GENRE=%m" -T "COMMENT=%e" %s -o %d
TOC извлечённого CD
Трек | Старт | Длительность | Начальный сектор | Конечный сектор
---------------------------------------------------------------------
1 | 0:00.00 | 5:55.07 | 0 | 26631
2 | 5:55.07 | 8:08.18 | 26632 | 63249
3 | 14:03.25 | 8:15.36 | 63250 | 100410
4 | 22:18.61 | 6:13.28 | 100411 | 128413
5 | 28:32.14 | 7:12.66 | 128414 | 160879
6 | 35:45.05 | 4:40.38 | 160880 | 181917
7 | 40:25.43 | 4:04.72 | 181918 | 200289
8 | 44:30.40 | 5:19.30 | 200290 | 224244
9 | 49:49.70 | 5:24.05 | 224245 | 248549
10 | 55:14.00 | 4:33.64 | 248550 | 269088
11 | 59:47.64 | 5:40.46 | 269089 | 294634
Характеристики диапазона извлечения и сообщения об ошибках
Выбранный диапазон
Имя файла G:\My Docs 2\My Music 2\Geri Allen - The Life of a Song\Geri Allen - The Life of a Song.wav
Пиковый уровень 97.7 %
Качество диапазона 99.9 %
CRC копии E2243DE5
Копирование... OK
Ошибок не произошло
Конец отчёта
Приватный:
Нет (DHT включён)
Размер:
363.03 Мб (380,662,413 байт) » файлов: 10
Участники:
0 раздают, 0 качают (0 участников всего)
Внешние участники:
1 раздают, 0 качают (1 участников всего) [ Обновить ]
20:40
89
RSS
Нет комментариев. Ваш будет первым!