Поиск

2006 Emil Richards & Joe Porcaro All Star Big Band - Odd Men In (2020) {Time-Life Music} [24-96]

2006 Emil Richards & Joe Porcaro All Star Big Band - Odd Men In (2020) {Time-Life Music} [24-96]
Носитель:
WEB
Формат:
PCM
Тип рипа:
tracks+.cue
Количество каналов:
2.0
Разрядность/ЧД:
24/96
Битрейт аудио:
lossless
Время звучания:
00:57:36
Наличие сканов:
web
Релизёр (источник):
M0p94ok
Лог проверки качества
foobar2000 1.5.5 / Dynamic Range Meter 1.1.1
log date: 2020-10-21 12:12:23

--------------------------------------------------------------------------------
Analyzed: Emil Richards & Joe Porcaro All Star Big Band / Odd Men In
--------------------------------------------------------------------------------

DR         Peak         RMS     Duration Track
--------------------------------------------------------------------------------
DR11      -0.20 dB   -14.38 dB      5:04 01-Free Flight
DR14      -0.20 dB   -18.85 dB      6:27 02-This is the Moment
DR8       -1.71 dB   -13.04 dB      7:59 03-Blues for Royalty
DR10      -0.20 dB   -13.82 dB      5:31 04-Yo Go Jo Po
DR8       -0.20 dB   -11.60 dB      4:01 05-Turn Up the Audio for Claudio
DR8       -0.20 dB   -11.57 dB      4:38 06-Walking Proud
DR10      -1.20 dB   -13.78 dB      5:31 07-On Green Dolphin Street
DR9       -0.20 dB   -12.48 dB      6:44 08-Blues Machine
DR9       -0.20 dB   -12.90 dB      6:13 09-A Minor Affair
DR9       -0.20 dB   -13.09 dB      5:33 10-Hard Sock Dance
--------------------------------------------------------------------------------

Number of tracks:  10
Official DR value: DR10

Samplerate:        96000 Hz
Channels:          2
Bits per sample:   24
Bitrate:           3023 kbps
Codec:             FLAC
================================================================================
No seeders - write personal message to M0p94ok. Any questions - support@pro-jazz.com.
Нет сидеров - пишите в личку M0p94ok. Есть вопросы - support@pro-jazz.com
12:26
235
Нет комментариев. Ваш будет первым!