Поиск

2005 Rolf Kühn & The NDR Bigband - Bouncing With Bud (2016) {In+Out} [24-44,1]

2005 Rolf Kühn & The NDR Bigband - Bouncing With Bud (2016) {In+Out} [24-44,1]
Формат записи/Источник записи:
[TR24][OF]
Наличие водяных знаков:
нет
Стили:
Дата издания диска:
2005
Дата переиздания диска:
2016
Издатель (лейбл):
Контейнер:
FLAC (*.flac)
Тип рипа:
tracks
Разрядность/ЧД:
24/44,1
Формат:
PCM
Количество каналов:
2.0
Битрейт аудио:
lossless
Время звучания:
41:53
Наличие сканов:
только обложка
Релизёр (источник):
WRZmusic
Треклист:

01. Falling In Love With Love (3:26)
02. Easyn Living (4:56)
03. Bouncing With Bud (5:36)
04. Dusk In Sandy (3:45)
05. Webb City (6:26)
06. Like Someone In Love (5:55)
07. Ticino (3:23)
08. Waltz Away (3:33)
09. In This World (4:53)

Магазин: qobuz.com

Лог проверки качества
foobar2000 1.3.9 / Dynamic Range Meter 1.1.1
log date: 2018-08-13 13:31:18

--------------------------------------------------------------------------------
Analyzed: Rolf Kühn & The NDR Bigband / Bouncing With Bud
--------------------------------------------------------------------------------

DR         Peak         RMS     Duration Track
--------------------------------------------------------------------------------
DR7       -1.05 dB    -9.70 dB      3:26 01-Falling In Love With Love
DR7       -1.05 dB   -10.63 dB      4:56 02-Easyn Living
DR7       -1.05 dB   -10.37 dB      5:36 03-Bouncing With Bud
DR10      -1.06 dB   -15.90 dB      3:45 04-Dusk In Sandy
DR7       -1.05 dB   -10.73 dB      6:26 05-Webb City
DR8       -1.05 dB   -12.97 dB      5:55 06-Like Someone In Love
DR7       -1.05 dB   -10.73 dB      3:23 07-Ticino
DR8       -1.05 dB   -11.80 dB      3:33 08-Waltz Away
DR9       -1.20 dB   -12.87 dB      4:53 09-In This World
--------------------------------------------------------------------------------

Number of tracks:  9
Official DR value: DR8

Samplerate:        44100 Hz
Channels:          2
Bits per sample:   24
Bitrate:           1572 kbps
Codec:             FLAC
================================================================================
Приватный:
Нет (DHT включён)
Размер:
493.29 Мб (517,256,998 байт) » файлов: 12
Участники:
4 раздают, 0 качают (4 участников всего)
Внешние участники:
2 раздают, 1 качают (3 участников всего) [ Обновить ]
01:13
29
Нет комментариев. Ваш будет первым!