Поиск

2005 Danilo Rea Trio - Romantica (2017) {Venus} [DSD64 ISO]

2005 Danilo Rea Trio - Romantica (2017) {Venus} [DSD64 ISO]
Дата записи диска:
29 января - 30 января 2004
Место записи:
The House Recording Studio, Rome, Italy
Дата переиздания диска:
15 апреля 2017
Издатель (лейбл):
Номер по каталогу:
VHGD-208
Носитель:
SACD
Формат:
DSD
Тип рипа:
tracks
Контейнер:
ISO (*.iso)
Количество каналов:
2.0
Разрядность/ЧД:
64 (2,8 MHz/1 Bit)
Битрейт аудио:
lossless
Время звучания:
01:12:39
Наличие сканов:
только обложка

Треклист:

01. Reginella  05:39
02. Munastero 'E Santa Chiara  04:39
03. Tu Si' 'Na Cosa Grande  05:23
04. Core 'Ngrato (Catari Catari)  04:04
05. Santa Lucia  05:04
06. Che Cosa C' e  06:06
07. Torna a Surriento  06:24
08. Parlami D'amore Mari u  04:24
09. Metti Una Sera a Cena  05:27
10. Resta Cu'mme  05:58
11. Un Giorno Dopo L'altro  04:08
12. Se Stasera Sono Qui  04:38
13. O' Surdato 'Nnammurato  04:56
14. Il Silenzio  06:39

Состав:
  •     Bass – Ares Tavolazzi
  •     Drums – Roberto Gatto
  •     Piano – Danilo Rea
  •     Producer – Tetsuo Hara
  •     Vocals – Stefano Bollani
Лог проверки качества
foobar2000 1.6.7 / Dynamic Range Meter 1.1.1
log date: 2021-11-12 19:06:14
--------------------------------------------------------------------------------
Analyzed: DANILO REA TRIO / Romantica
--------------------------------------------------------------------------------
DR         Peak         RMS     Duration Track
--------------------------------------------------------------------------------
DR7       -4.48 dB   -14.00 dB      5:35 01-Reginella
DR9       -5.08 dB   -16.83 dB      4:36 02-Munastero 'E Santa Chiara
DR6       -4.95 dB   -13.69 dB      5:19 03-Tu Si' 'Na Cosa Grande
DR7       -5.13 dB   -16.46 dB      4:00 04-Core 'Ngrato
DR7       -4.54 dB   -13.49 dB      5:00 05-Santa Lucia
DR9       -5.06 dB   -17.15 dB      6:02 06-Che Cosa C'`e
DR7       -3.97 dB   -15.60 dB      6:19 07-Torna A Surriento
DR7       -4.87 dB   -14.03 dB      4:21 08-Parlami D'amore Mari`u
DR6       -4.41 dB   -13.03 dB      5:23 09-Metti Una Sera A Cena
DR10      -5.06 dB   -18.05 dB      5:54 10-Resta Cu'mme
DR10      -5.17 dB   -18.94 dB      4:05 11-Un Giorno Dopo L'altro
DR10      -5.12 dB   -18.38 dB      4:34 12-Se Stasera Sono Qui
DR6       -4.64 dB   -12.44 dB      4:53 13-O' Surdato 'Nnammurato
DR7       -4.39 dB   -14.68 dB      6:39 14-Il Silenzio
--------------------------------------------------------------------------------
Number of tracks:  14
Official DR value: DR8
Samplerate:        2822400 Hz / PCM Samplerate: 88200 Hz
Channels:          2
Bits per sample:   1
Bitrate:           5645 kbps
Codec:             DSD64
================================================================================
По всем вопросам пишите личное сообщение пользователю M0p94ok.
12:49
129
Нет комментариев. Ваш будет первым!