Поиск

2003 Kenny Garrett - Standard of Language {Warner Bros. 9362-48404-2}

2003 Kenny Garrett - Standard of Language {Warner Bros. 9362-48404-2}
Страна-производитель диска (релиза):
USA
Дата издания диска:
11 марта 2003
Издатель (лейбл):
Номер по каталогу:
9362-48404-2
Носитель:
CD
Битрейт аудио:
lossless
Аудиокодек:
FLAC (*.flac)
Тип рипа:
tracks
Время звучания:
58:11
Наличие сканов:
  • да
Релизёр (источник):
CocoBrice
Треклист:

1. What Is This Thing Called Love? 7:45
2. Kurita Sensei 4:21
3. XYZ 6:16
4. Native Tongue 5:10
5. Chief Blackwater 4:52
6. Doc Tone's Short Speech 5:49
7. Just a Second to Catch My Breath 4:45
8. Gendai 7:55
9. Standard of Language I II III 11:11

Состав:
  • Vernell Brown, Jr.    Piano
  • Chris "Daddy" Dave    Drums
  • Kenny Garrett    Arranger, Composer, Producer, Sax (Alto), Sax (Soprano)
  • Eric Harland    Drums
  • Marcus Miller    Producer
  • Charnett Moffett    Bass
  • Bill Schnee    Engineer

Записано в 

  • Avatar Studios, New York, NY
  • Oceanway Studio, Los Angeles, CA
Лог создания рипа
Exact Audio Copy V0.99 prebeta 4 from 23. January 2008

EAC extraction logfile from 5. March 2008, 13:04

Kenny Garrett / Standard Of Language

Used drive : HL-DT-STDVD-ROM GDR8163B Adapter: 1 ID: 1

Read mode : Secure
Utilize accurate stream : Yes
Defeat audio cache : Yes
Make use of C2 pointers : No

Read offset correction : 102
Overread into Lead-In and Lead-Out : No
Fill up missing offset samples with silence : Yes
Delete leading and trailing silent blocks : No
Null samples used in CRC calculations : Yes
Used interface : Installed external ASPI interface
Gap handling : Appended to previous track

Used output format : User Defined Encoder
Selected bitrate : 768 kBit/s
Quality : High
Add ID3 tag : No
Command line compressor : C:\Program Files\Exact Audio Copy\FLAC\FLAC.EXE
Additional command line options : -8 -V -T "ARTIST=%a" -T "TITLE=%t" -T "ALBUM=%g" -T "DATE=%y" -T "TRACKNUMBER=%n" -T "GENRE=%m" -T "COMMENT=EAC FLAC -8" %s

TOC of the extracted CD

Track | Start | Length | Start sector | End sector
---------------------------------------------------------
1 | 0:00.00 | 7:44.57 | 0 | 34856
2 | 7:44.57 | 4:23.13 | 34857 | 54594
3 | 12:07.70 | 6:17.45 | 54595 | 82914
4 | 18:25.40 | 5:09.47 | 82915 | 106136
5 | 23:35.12 | 4:52.33 | 106137 | 128069
6 | 28:27.45 | 5:50.57 | 128070 | 154376
7 | 34:18.27 | 4:44.40 | 154377 | 175716
8 | 39:02.67 | 7:57.60 | 175717 | 211551
9 | 47:00.52 | 11:11.05 | 211552 | 261881

Track 1

Filename D:\Jazz\Kenny Garrett - Standard Of Language (2003) [FLAC]\01 - What Is This Thing Called Love.wav

Pre-gap length 0:00:02.00

Peak level 99.8 %
Track quality 100.0 %
Test CRC 0792EB9A
Copy CRC 0792EB9A
Accurately ripped (confidence 2) [65A3F7D7]
Copy OK

Track 2

Filename D:\Jazz\Kenny Garrett - Standard Of Language (2003) [FLAC]\02 - Kurita Sensei.wav

Peak level 99.8 %
Track quality 100.0 %
Test CRC 3AAF7E18
Copy CRC 3AAF7E18
Accurately ripped (confidence 2) [F032981B]
Copy OK

Track 3

Filename D:\Jazz\Kenny Garrett - Standard Of Language (2003) [FLAC]\03 - XYZ.wav

Pre-gap length 0:00:02.10

Peak level 99.8 %
Track quality 100.0 %
Test CRC 46A69769
Copy CRC 46A69769
Accurately ripped (confidence 2) [3866F044]
Copy OK

Track 4

Filename D:\Jazz\Kenny Garrett - Standard Of Language (2003) [FLAC]\04 - Native Tongue.wav

Pre-gap length 0:00:01.20

Peak level 99.8 %
Track quality 100.0 %
Test CRC CE4290A9
Copy CRC CE4290A9
Accurately ripped (confidence 2) [EBD22CBB]
Copy OK

Track 5

Filename D:\Jazz\Kenny Garrett - Standard Of Language (2003) [FLAC]\05 - Chief Blackwater.wav

Peak level 99.8 %
Track quality 100.0 %
Test CRC 138423AB
Copy CRC 138423AB
Accurately ripped (confidence 2) [21910BCA]
Copy OK

Track 6

Filename D:\Jazz\Kenny Garrett - Standard Of Language (2003) [FLAC]\06 - Doc Tone's Short Speech.wav

Peak level 99.8 %
Track quality 100.0 %
Test CRC B95C073D
Copy CRC B95C073D
Accurately ripped (confidence 2) [8DDCC533]
Copy OK

Track 7

Filename D:\Jazz\Kenny Garrett - Standard Of Language (2003) [FLAC]\07 - Just A Second To Catch My Breath.wav

Pre-gap length 0:00:01.70

Peak level 99.8 %
Track quality 100.0 %
Test CRC C487B99B
Copy CRC C487B99B
Accurately ripped (confidence 2) [1B478AD5]
Copy OK

Track 8

Filename D:\Jazz\Kenny Garrett - Standard Of Language (2003) [FLAC]\08 - Gendai.wav

Peak level 99.8 %
Track quality 100.0 %
Test CRC A8CD4ED6
Copy CRC A8CD4ED6
Accurately ripped (confidence 2) [7D4B9320]
Copy OK

Track 9

Filename D:\Jazz\Kenny Garrett - Standard Of Language (2003) [FLAC]\09 - Standard Of Language I II III.wav

Pre-gap length 0:00:02.57

Peak level 99.8 %
Track quality 100.0 %
Test CRC 09DA9826
Copy CRC 09DA9826
Accurately ripped (confidence 2) [8D5FC548]
Copy OK

All tracks accurately ripped

No errors occurred

End of status report
Приватный:
Нет (DHT включён)
Размер:
407.99 Мб (427,809,771 байт) » файлов: 23
Участники:
0 раздают, 0 качают (0 участников всего)
Внешние участники:
2 раздают, 1 качают (3 участников всего) [ Обновить ]
15:56
43
RSS
Нет комментариев. Ваш будет первым!