Поиск

1975 (1994) Ralph Towner & Gary Burton - Matchbook {ECM 1056}

1975 (1994) Ralph Towner & Gary Burton - Matchbook {ECM 1056}
Страна-производитель диска (релиза):
USA
Дата записи диска:
26-27 июля 1974
Дата издания диска:
26 апреля 1975
Дата переиздания диска:
1994
Издатель (лейбл):
Номер по каталогу:
1056
Носитель:
CD
Битрейт аудио:
lossless
Аудиокодек:
FLAC (*.flac)
Тип рипа:
image+.cue
Время звучания:
38:57
Наличие сканов:
  • нет
Релизёр (источник):
ivoronen
Треклист:

1. Drifting Petals (5:15)
2. Some Other Time (6:11)
3. Brotherhood (1:08)
4. Icarus (5:50)
5. Song for a Friend (5:04)
6. Matchbook (4:30)
7. 1 x 6 (0:58)
8. Aurora (5:07)
9. Goodbye Pork Pie Hat (4:22)

Состав:
  • Gary Burton Composer, Performer, Vibraphone
  • Manfred Eicher Producer
  • Ralph Towner Composer, Guitar, Guitar (12 String), Guitar (Acoustic), Guitar (Classical), Keyboards
  • Martin Wieland Engineer

Записано в 

  • Bauer Studios, Ludwigsburg, Germany
Лог создания рипа
Exact Audio Copy V0.99 prebeta 4 from 23. January 2008
EAC extraction logfile from 7. March 2008, 20:16
Ralph Towner & Gary Burton / Matchbook
Used drive : MATSHITADVD-RAM UJ-840S Adapter: 1 ID: 0
Read mode : Secure
Utilize accurate stream : Yes
Defeat audio cache : Yes
Make use of C2 pointers : No
Read offset correction : 102
Overread into Lead-In and Lead-Out : No
Fill up missing offset samples with silence : Yes
Delete leading and trailing silent blocks : No
Null samples used in CRC calculations : No
Used interface : Installed external ASPI interface
Used output format : User Defined Encoder
Selected bitrate : 1024 kBit/s
Quality : High
Add ID3 tag : No
Command line compressor : C:\Program Files\Exact Audio Copy\FLAC\FLAC.EXE
Additional command line options : -6 -V -T "ARTIST=%a" -T "TITLE=%t" -T "ALBUM=%g" -T "DATE=%y" -T "TRACKNUMBER=%n" -T "GENRE=%m" -T "COMMENT=%e" %s -o %d
TOC of the extracted CD
Track | Start | Length | Start sector | End sector
---------------------------------------------------------
1 | 0:00.00 | 5:19.42 | 0 | 23966
2 | 5:19.42 | 6:16.68 | 23967 | 52234
3 | 11:36.35 | 1:12.12 | 52235 | 57646
4 | 12:48.47 | 5:53.58 | 57647 | 84179
5 | 18:42.30 | 5:10.27 | 84180 | 107456
6 | 23:52.57 | 4:34.25 | 107457 | 128031
7 | 28:27.07 | 0:56.40 | 128032 | 132271
8 | 29:23.47 | 5:11.03 | 132272 | 155599
9 | 34:34.50 | 4:22.22 | 155600 | 175271
Range status and errors
Selected range
Filename F:\u\Ralph Towner\Ralph Towner & Gary Burton - Matchbook.wav
Peak level 87.6 %
Range quality 100.0 %
Copy CRC 286DFC9A
Copy OK
No errors occurred
AccurateRip summary
Track 1 accurately ripped (confidence 1) [0619D35F]
Track 2 accurately ripped (confidence 1) [F9BAC13B]
Track 3 accurately ripped (confidence 1) [95D8D04E]
Track 4 accurately ripped (confidence 1) [B158A8AD]
Track 5 accurately ripped (confidence 1) [2882531A]
Track 6 accurately ripped (confidence 1) [5006E4CE]
Track 7 accurately ripped (confidence 1) [61D2437C]
Track 8 accurately ripped (confidence 1) [C06959FE]
Track 9 accurately ripped (confidence 1) [F97DF08F]
All tracks accurately ripped
End of status report
Приватный:
Да (DHT отключён)
Размер:
160.77 Мб (168,581,681 байт) » файлов: 5
Участники:
0 раздают, 0 качают (0 участников всего)
Внешние участники:
7 раздают, 2 качают (9 участников всего) [ Обновить ]
07:58
30
RSS
Нет комментариев. Ваш будет первым!