Поиск

2002 Toshiko Akiyoshi Jazz Orchestra - Hiroshima – Rising From The Abyss {True Life Jazz} [CD]

2002 Toshiko Akiyoshi Jazz Orchestra - Hiroshima – Rising From The Abyss {True Life Jazz} [CD]
Дата записи диска:
6 августа 2001
Место записи:
Hiroshimakohseinenkinkaikan
Дата издания диска:
4 февраля 2002

Треклист:

01. Long Yellow Road (1:53)
02. Hiroshima - Rising From The Abyss: Futility-Tragedy (12:07)
03. Hiroshima - Rising From The Abyss: Futility-Tragedy (Continued) (3:26)
04. Hiroshima - Rising From The Abyss: Survivor Tales (6:41)
05. Hiroshima - Rising From The Abyss: Survivor Tales (Continued) (1:18)
06. Hiroshima - Rising From The Abyss: Survivor Tales (Continued) (13:15)
07. Hiroshima - Rising From The Abyss: Hope (6:42)
08. Wishing Peace (7:14)

Состав:
  • Toshiko Akiyoshi — Orchestration, Piano
  • Lew Tabackin — Flute, Sax (Tenor)
  • Won Jang-Hyun — Flute
  • Tom Christensen — Flute, Sax (Tenor)
  • Scott Robinson — Clarinet (Bass), Sax (Baritone)
  • Jim Snidero — Flute, Sax (Alto)
  • Dave Pietro — Flute, Sax (Alto)
  • Mike Ponella — Trumpet
  • Jim Rotondi — Trumpet
  • Jim O'Connor — Trumpet
  • John Eckert — Trumpet
  • Pat Hallaran — Trombone
  • Steve Armour — Trombone, Trombone (Bass)
  • Scott Whitfield — Trombone, Trombone (Bass)
  • Tim Newman — Trombone (Bass)
  • Paul Gill — Bass
  • George Kawaguchi — Drums
  • Andy Watson — Drums
  • Valtinho — Percussion
Доп. инфо:

Лейбл: True Life
Номер по каталогу: TLE 1000082
Аудио кодек: FLAC (*.flac)
Тип рипа: image+.cue
Битрейт аудио: lossless
Продолжительность: 52:36
Риппер: barin99
Сканы есть

Лог создания рипа
Exact Audio Copy V1.0 beta 1 from 15. November 2010
EAC extraction logfile from 12. January 2011, 11:11
Toshiko Akiyoshi Jazz Orchestra / Hiroshima - Rising from the Abyss
Used drive  : TSSTcorpDVD+-RW TS-L532B   Adapter: 1  ID: 0
Read mode               : Secure
Utilize accurate stream : Yes
Defeat audio cache      : Yes
Make use of C2 pointers : No
Read offset correction                      : 704
Overread into Lead-In and Lead-Out          : No
Fill up missing offset samples with silence : Yes
Delete leading and trailing silent blocks   : No
Null samples used in CRC calculations       : Yes
Used interface                              : Native Win32 interface for Win NT & 2000
Used output format : Internal WAV Routines
Sample format      : 44.100 Hz; 16 Bit; Stereo
TOC of the extracted CD
     Track |   Start  |  Length  | Start sector | End sector
    ---------------------------------------------------------
        1  |  0:00.00 |  1:53.32 |         0    |     8506
        2  |  1:53.32 | 12:06.63 |      8507    |    63019
        3  | 14:00.20 |  3:26.00 |     63020    |    78469
        4  | 17:26.20 |  6:40.60 |     78470    |   108529
        5  | 24:07.05 |  1:18.27 |    108530    |   114406
        6  | 25:25.32 | 13:14.38 |    114407    |   173994
        7  | 38:39.70 |  6:41.62 |    173995    |   204131
        8  | 45:21.57 |  7:13.70 |    204132    |   236676
Range status and errors
Selected range
     Filename C:\Documents and Settings\VB\My Documents\BARIN99\Toshiko Akiyoshi Jazz Orchestra - Hiroshima - Rising from the Abyss\Toshiko Akiyoshi Jazz Orchestra - Hiroshima - Rising from the Abyss.wav
     Peak level 100.0 %
     Extraction speed 0.5 X
     Range quality 100.0 %
     Copy CRC BE2BF058
     Copy OK
No errors occurred
AccurateRip summary
Track  1  accurately ripped (confidence 2)  [DC2F8006]
Track  2  accurately ripped (confidence 2)  [3D4F67C4]
Track  3  cannot be verified as accurate (confidence 2)  [D86CCC74], AccurateRip returned [3C3F9738]
Track  4  accurately ripped (confidence 2)  [66FA75C1]
Track  5  accurately ripped (confidence 2)  [219899C4]
Track  6  cannot be verified as accurate (confidence 2)  [9E3192BF], AccurateRip returned [1901D842]
Track  7  accurately ripped (confidence 2)  [DC4C2AF5]
Track  8  accurately ripped (confidence 2)  [2F4AED59]
 6 track(s) accurately ripped
 2 track(s) could not be verified as accurate
Some tracks could not be verified as accurate
End of status report
23:11
572
Нет комментариев. Ваш будет первым!